微博 微信 手机APP

Hao4K影音

电影频道
电影封面:
片  名: 极度战栗4k
电影分类: 犯罪 惊悚 剧情 
国  家: 其他 
年  代: 90年代
分 辨 率: 4K(3840x2160)
电影格式: MKV|REMUX 
画质标准: SDR 
音质编码: 其他AAC 
电影声道: 2.0声道 
帧数/FPS: 24.000 帧
电影语言: 英文原版 
资源大小: 10.07 GB
导  演: Bill Bennett
豆瓣评分:
中文字幕: -
剧情简介:  尼克(弗兰西丝·奥康纳 Frances O\'Connor 饰)和艾尔(Matt Day 饰)表面看来只是一对恩爱有加的平凡情侣,可实际上,他们是行走在江湖之中的雌雄大盗,两人天衣无缝的配合着犯下了屡屡罪案,始终未曾落入过恢恢的法网。
  一场意外中,两人在行窃的过程中失手杀了人,这可惹出了大麻烦。这起劫杀案很快就吸引了警方的注意,尼克和艾尔成为了众矢之的,无奈只得双双踏上逃亡的旅途。两人一路向西,来到了一间小旅馆投宿,可隔天早晨却发现旅馆老板被人杀害。之后,他们又来到了另一间破旧的旅店,结果悲剧重演,他们的手上又多了两条人命。屡屡发生的怪事让尼克和艾尔之间的信任逐渐分崩离析。
极度战栗4k Kiss.Or.Kill.1997.2160p.STAN.WEB-DL.x265.8bit.SDR.AAC2.0-电影信息
  1. Video
  2. ID : 1
  3. Format : HEVC
  4. Format/Info : High Efficiency Video Coding
  5. Format profile : Main@L5@High
  6. Codec ID : V_MPEGH/ISO/HEVC
  7. Duration : 1 h 35 min
  8. Bit rate : 14.9 Mb/s
  9. Width : 3 840 pixels
  10. Height : 2 160 pixels
  11. Display aspect ratio : 16:9
  12. Frame rate mode : Constant
  13. Frame rate : 24.000 FPS
  14. Color space : YUV
  15. Chroma subsampling : 4:2:0
  16. Bit depth : 8 bits
  17. Bits/(Pixel*Frame) : 0.075
  18. Stream size : 9.99 GiB (99%)
  19. Language : English
  20. Default : Yes
  21. Forced : No
  22. Color range : Limited
  23. Color primaries : BT.709
  24. Transfer characteristics : BT.709
  25. Matrix coefficients : BT.709

  26. Audio
  27. ID : 2
  28. Format : AAC LC
  29. Format/Info : Advanced Audio Codec Low Complexity
  30. Codec ID : A_AAC-2
  31. Duration : 1 h 35 min
  32. Bit rate : 126 kb/s
  33. Channel(s) : 2 channels
  34. Channel layout : L R
  35. Sampling rate : 44.1 kHz
  36. Frame rate : 43.066 FPS (1024 SPF)
  37. Compression mode : Lossy
  38. Stream size : 86.2 MiB (1%)
  39. Language : English
  40. Default : Yes
  41. Forced : No

  42. Text
  43. ID : 3
  44. Format : UTF-8
  45. Codec ID : S_TEXT/UTF8
  46. Codec ID/Info : UTF-8 Plain Text
  47. Duration : 1 h 32 min
  48. Bit rate : 63 b/s
  49. Count of elements : 1629
  50. Stream size : 43.5 KiB (0%)
  51. Title : CC
  52. Language : English
  53. Default : No
  54. Forced : No
复制代码

极度战栗4k Kiss.Or.Kill.1997.2160p.STAN.WEB-DL.x265.8bit.SDR.AAC2.0-电影下载

极度战栗4k Kiss.Or.Kill.1997.2160p.STAN.WEB-DL.x265.8bit.SDR.AAC2.0【 4k SDR 10.07GB】
[Hao4K]极度战栗4k Kiss.Or.Kill.1997.2160p.STAN.WEB-DL.x265.8bit.SDR.AAC2.0-TEPES.torrent (13.23 KB, 售价: 2 个K币)
回复

使用道具 举报

全部回复4

蔡恩祈 发表于 2021-10-5 11:00:02 Hao4K手机版

蔡恩祈 2

2021-10-5 11:00:02

不是吧,冷门到没有海报!还是看看吧
回复 支持 反对

使用道具 举报

QQ_1C652F 发表于 2021-10-5 11:11:08

QQ_1C652F 3

2021-10-5 11:11:08

谢谢楼主无私分享
回复 支持 反对

使用道具 举报

2019hk2125 发表于 2021-10-5 17:25:15

2019hk2125 4

2021-10-5 17:25:15

片子蛮老的了.
回复 支持 反对

使用道具 举报

pblppp 发表于 2021-10-6 10:00:28

pblppp 5

2021-10-6 10:00:28

谢谢楼主无私分享
回复 支持 反对

使用道具 举报

   发表回复

您需要登录后才可以回帖 登录 | 立即注册

返回列表 本版积分规则

  • 发布新帖

  • 客服/帮助

  • 手机APP

  • 返回顶部