微博 微信 手机APP

Hao4K影音

电影频道
电影封面:
片  名: 阿米蒂维尔之月4k
电影分类: 恐怖 惊悚 
国  家: 美国 
年  代: 2021年
分 辨 率: 4K(3840x2160)
电影格式: MKV|REMUX 
画质标准: SDR 
音质编码:  
电影声道:  
帧数/FPS: 23.976 帧
电影语言: 英文原版 
资源大小: 7.94 GB
导  演: Thomas J. Churchill
豆瓣评分:
中文字幕: -
剧情简介:  A detective hired to find two runaway girls from a boarding home run by the church. After finding and returning one of the girls, the detective discovers the home’s horrifying secret.
阿米蒂维尔之月4k Amityville.Moon.2021.2160p.WEB-DL.x265.10bit.SDR.DD5.1-4k电影信息
  1. Video
  2. ID : 1
  3. Format : HEVC
  4. Format/Info : High Efficiency Video Coding
  5. Format profile : Main 10@L5@High
  6. Codec ID : V_MPEGH/ISO/HEVC
  7. Duration : 1 h 32 min
  8. Bit rate : 11.9 Mb/s
  9. Width : 3 832 pixels
  10. Height : 2 152 pixels
  11. Display aspect ratio : 16:9
  12. Frame rate mode : Constant
  13. Frame rate : 23.976 FPS
  14. Color space : YUV
  15. Chroma subsampling : 4:2:0
  16. Bit depth : 10 bits
  17. Bits/(Pixel*Frame) : 0.060
  18. Stream size : 7.69 GiB (97%)
  19. Default : Yes
  20. Forced : No
  21. Color range : Limited
  22. Color primaries : BT.709
  23. Transfer characteristics : BT.709
  24. Matrix coefficients : BT.709

  25. Audio
  26. ID : 2
  27. Format : AC-3
  28. Format/Info : Audio Coding 3
  29. Commercial name : Dolby Digital
  30. Codec ID : A_AC3
  31. Duration : 1 h 32 min
  32. Bit rate mode : Constant
  33. Bit rate : 384 kb/s
  34. Channel(s) : 6 channels
  35. Channel layout : L R C LFE Ls Rs
  36. Sampling rate : 48.0 kHz
  37. Frame rate : 31.250 FPS (1536 SPF)
  38. Compression mode : Lossy
  39. Stream size : 253 MiB (3%)
  40. Title : English
  41. Language : English
  42. Service kind : Complete Main
  43. Default : No
  44. Forced : No

  45. Text #1
  46. ID : 3
  47. Format : UTF-8
  48. Codec ID : S_TEXT/UTF8
  49. Codec ID/Info : UTF-8 Plain Text
  50. Duration : 1 h 24 min
  51. Bit rate : 45 b/s
  52. Count of elements : 949
  53. Stream size : 28.2 KiB (0%)
  54. Language : English
  55. Default : Yes
  56. Forced : No

  57. Text #2
  58. ID : 4
  59. Format : UTF-8
  60. Codec ID : S_TEXT/UTF8
  61. Codec ID/Info : UTF-8 Plain Text
  62. Duration : 1 h 9 min
  63. Bit rate : 41 b/s
  64. Count of elements : 724
  65. Stream size : 21.1 KiB (0%)
  66. Title : French
  67. Language : French
  68. Default : No
  69. Forced : No
复制代码

阿米蒂维尔之月4k Amityville.Moon.2021.2160p.WEB-DL.x265.10bit.SDR.DD5.1-4k电影下载
[Hao4k]阿米蒂维尔之月4k Amityville.Moon.2021.2160p.WEB-DL.x265.10bit.SDR.DD5.1-NOGRP.torrent (20.5 KB, 售价: 2 个K币)
回复

使用道具 举报

全部回复2

bbgrnnji 发表于 2021-10-6 09:22:46

bbgrnnji 2

2021-10-6 09:22:46

不知道是恐怖片喜欢4K还是4K喜欢恐怖片
回复 支持 反对

使用道具 举报

老鼠响叮当燚燚 发表于 2021-10-6 11:08:35

老鼠响叮当燚燚 3

2021-10-6 11:08:35

谢谢楼主发片分享
回复 支持 反对

使用道具 举报

   发表回复

您需要登录后才可以回帖 登录 | 立即注册

返回列表 本版积分规则

  • 发布新帖

  • 客服/帮助

  • 手机APP

  • 返回顶部