微博 微信

Hao4K影音

电影频道
电影封面:
片  名: 夜间小屋4k
电影分类: 恐怖 惊悚 
国  家: 中国香港 英国 
年  代: 2020年
分 辨 率: 4K(3840x2160)
电影格式: MKV|REMUX 
画质标准: HDR SDR 
音质编码: Dolby Digital Plus Audio 
电影声道: 5.1声道 
帧数/FPS: 23.976 帧
电影语言: 英文原版 
资源大小: 18.64 GB
导  演: 大卫·布鲁克纳
豆瓣评分: 7.1 分
中文字幕: /thread-62390-1-1.html
剧情简介: 贝丝(丽贝卡·豪尔 Rebecca Hall饰)在先生欧文(伊万·乔尼凯特 Evan Jonigkeit饰)过世后,独自住在先生生前为她所建造的湖边小屋中,虽然她努力维持正常的生活,但恶梦仍朝她袭来,她感受到屋内似乎有一些不寻常的动静,而在朋友的建议下试图从先生的遗物中 找寻答案,于是她决心解开这令人不安的秘密……
鬼屋 / 夜屋 / 夜之屋/夜间小屋4k The.Night.House.2020.2160p.WEB-DL.x265.10bit.HDR.DDP5.1电影信息
  1. Video
  2. ID : 1
  3. Format : HEVC
  4. Format/Info : High Efficiency Video Coding
  5. Format profile : Main 10@L5@High
  6. HDR format : SMPTE ST 2086, HDR10 compatible
  7. Codec ID : V_MPEGH/ISO/HEVC
  8. Duration : 1 h 46 min
  9. Bit rate : 24.3 Mb/s
  10. Width : 3 840 pixels
  11. Height : 1 600 pixels
  12. Display aspect ratio : 2.40:1
  13. Frame rate mode : Constant
  14. Frame rate : 23.976 FPS
  15. Color space : YUV
  16. Chroma subsampling : 4:2:0 (Type 2)
  17. Bit depth : 10 bits
  18. Bits/(Pixel*Frame) : 0.165
  19. Stream size : 18.2 GiB (97%)
  20. Default : Yes
  21. Forced : No
  22. Color range : Limited
  23. Color primaries : BT.2020
  24. Transfer characteristics : PQ
  25. Matrix coefficients : BT.2020 non-constant
  26. Mastering display color primaries : BT.2020
  27. Mastering display luminance : min: 0.0050 cd/m2, max: 1000 cd/m2
  28. Maximum Content Light Level : 1232 cd/m2
  29. Maximum Frame-Average Light Level : 192 cd/m2

  30. Audio
  31. ID : 2
  32. Format : E-AC-3
  33. Format/Info : Enhanced AC-3
  34. Commercial name : Dolby Digital Plus
  35. Codec ID : A_EAC3
  36. Duration : 1 h 46 min
  37. Bit rate mode : Constant
  38. Bit rate : 640 kb/s
  39. Channel(s) : 6 channels
  40. Channel layout : L R C LFE Ls Rs
  41. Sampling rate : 48.0 kHz
  42. Frame rate : 31.250 FPS (1536 SPF)
  43. Compression mode : Lossy
  44. Stream size : 490 MiB (3%)
  45. Language : English
  46. Service kind : Complete Main
  47. Default : Yes
  48. Forced : No

  49. Text
  50. ID : 3
  51. Format : UTF-8
  52. Codec ID : S_TEXT/UTF8
  53. Codec ID/Info : UTF-8 Plain Text
  54. Duration : 1 h 39 min
  55. Bit rate : 30 b/s
  56. Count of elements : 833
  57. Stream size : 21.9 KiB (0%)
  58. Language : English
  59. Default : Yes
  60. Forced : No
复制代码

鬼屋 / 夜屋 / 夜之屋/夜间小屋4k The.Night.House.2020.2160p.WEB-DL.x265.10bit.HDR.DDP5.1电影下载

间小屋4k The.Night.House.2020.2160p.WEB-DL.x265.10bit.HDR.DDP5.1【4k HDR 18.64 GB】
[Hao4k]夜间小屋4K The.Night.House.2020.2160p.WEB-DL.x265.10bit.HDR.DDP5.1-NOGRP.torrent (23.96 KB, 售价: 2 个K币)
回复

使用道具 举报

全部回复7

hhhz 发表于 2021-10-5 19:35:02

hhhz 2

2021-10-5 19:35:02

感谢楼主分享影片!
回复 支持 反对

使用道具 举报

les5332295 发表于 2021-10-5 20:04:13

les5332295 3

2021-10-5 20:04:13

进来发布很多惊悚片
回复 支持 反对

使用道具 举报

宁波江南犬舍 发表于 2021-10-5 21:20:01

宁波江南犬舍 4

2021-10-5 21:20:01

作为恐怖片爱好者  太开心了。   把  阴声   和  饥饿站台  也搞来吧
回复 支持 反对

使用道具 举报

龙与少年游 发表于 2021-10-6 00:37:14 Hao4K手机版

龙与少年游 5

2021-10-6 00:37:14

听说口碑不错,不知道真的好看吗?有没有老哥看过说一下
回复 支持 反对

使用道具 举报

bbgrnnji 发表于 2021-10-6 09:22:16

bbgrnnji 6

2021-10-6 09:22:16

这个更应该不错
回复 支持 反对

使用道具 举报

ll4027 发表于 2021-10-6 17:22:23

ll4027 7

2021-10-6 17:22:23

就这个类型的电影来说,评分不低了,试试看
回复 支持 反对

使用道具 举报

HYJ1230 发表于 2021-10-9 20:32:47

HYJ1230 8

2021-10-9 20:32:47

感谢楼主分享,又有恐怖片看了!!
回复 支持 反对

使用道具 举报

   发表回复

您需要登录后才可以回帖 登录 | 立即注册

返回列表 本版积分规则

  • 在线客服

  • 返回顶部