微博 微信

Hao4K影音

电影频道
电影封面:
片  名: 八年级4k
电影分类: 喜剧 
国  家: 美国 
年  代: 2018年
分 辨 率: 4K(3840x2160)
电影格式: MKV|REMUX 
画质标准: Dolby Vision 
音质编码: Dolby Digital Audio 
电影声道: 5.1声道 
帧数/FPS: 23.976 帧
电影语言: 英文原版 
资源大小: 9.97 GB
导  演: 博·伯翰
豆瓣评分: 6.6 分
中文字幕: -
剧情简介: 故事讲述13岁的凯拉(艾尔西·费舍尔 饰)在初中的最后一周,所经历的青春故事..
The Coolest Girl in the World / 8th Grade/八年级4k Eighth.Grade.2018.2160p.WEB-DL.DD5.1.DV.MP4.x265-4k电影信息
  1. Video
  2. ID : 1
  3. Format : HEVC
  4. Format/Info : High Efficiency Video Coding
  5. Format profile : Main 10@L5@Main
  6. HDR format : Dolby Vision, Version 1.0, dvhe.05.06, BL+RPU
  7. Codec ID : dvhe
  8. Codec ID/Info : High Efficiency Video Coding with Dolby Vision
  9. Duration : 1 h 33 min
  10. Bit rate : 14.9 Mb/s
  11. Width : 3 840 pixels
  12. Height : 2 160 pixels
  13. Display aspect ratio : 16:9
  14. Frame rate mode : Constant
  15. Frame rate : 23.976 (24000/1001) FPS
  16. Color space : YUV
  17. Chroma subsampling : 4:2:0
  18. Bit depth : 10 bits
  19. Bits/(Pixel*Frame) : 0.075
  20. Stream size : 9.72 GiB (97%)
  21. Writing library : x265 2.8hy:[Linux][GCC 7.5.0][64 bit] 10bit
  22. Encoding settings : cpuid=1111039 / frame-threads=1 / no-wpp / no-pmode / no-pme / no-psnr / no-ssim / log-level=2 / input-csp=1 / input-res=3840x2160 / interlace=0 / total-frames=0 / level-idc=0 / high-tier=1 / uhd-bd=0 / ref=4 / no-allow-non-conformance / repeat-headers / annexb / aud / hrd / info / hash=0 / no-temporal-layers / no-open-gop / min-keyint=48 / keyint=48 / gop-lookahead=0 / bframes=4 / b-adapt=2 / b-pyramid / bframe-bias=0 / rc-lookahead=48 / lookahead-slices=4 / scenecut=0 / radl=0 / no-intra-refresh / ctu=64 / min-cu-size=8 / rect / no-amp / max-tu-size=32 / tu-inter-depth=1 / tu-intra-depth=1 / limit-tu=0 / rdoq-level=2 / dynamic-rd=0.00 / no-ssim-rd / signhide / no-tskip / nr-intra=100 / nr-inter=400 / no-constrained-intra / strong-intra-smoothing / max-merge=3 / limit-refs=3 / limit-modes / me=3 / subme=3 / merange=57 / temporal-mvp / weightp / no-weightb / no-analyze-src-pics / deblock=0:0 / sao / no-sao-non-deblock / rd=4 / no-early-skip / rskip / no-fast-intra / no-tskip-fast / no-cu-lossless / no-b-intra / no-splitrd-skip / rdpenalty=0 / psy-rd=0.00 / psy-rdoq=1.00 / no-rd-refine / no-lossless / cbqpoffs=0 / crqpoffs=3 / rc=abr / bitrate=15000 / qcomp=0.60 / qpstep=4 / stats-write=0 / stats-read=2 / cplxblur=20.0 / qblur=0.5 / vbv-maxrate=18000 / vbv-bufsize=12000 / vbv-init=0.6 / vbv-end=0.6 / vbv-end-fr-adj=0.0 / ipratio=1.40 / pbratio=1.30 / aq-mode=1 / aq-strength=1.00 / cutree / zone-count=0 / no-strict-cbr / qg-size=32 / no-rc-grain / qpmax=69 / qpmin=0 / no-const-vbv / sar=1 / overscan=0 / videoformat=5 / range=1 / colorprim=2 / transfer=2 / colormatrix=2 / chromaloc=0 / display-window=0 / max-cll=0,0 / min-luma=0 / max-luma=1023 / log2-max-poc-lsb=8 / vui-timing-info / vui-hrd-info / no-concatenation / slices=1 / no-opt-qp-pps / no-opt-ref-list-length-pps / no-multi-pass-opt-rps / scenecut-bias=0.05 / no-opt-cu-delta-qp / no-aq-motion / no-hdr / no-hdr-opt / no-dhdr10-opt / no-idr-recovery-sei / analysis-reuse-level=5 / scale-factor=0 / refine-intra=0 / refine-inter=0 / refine-mv=0 / no-limit-sao / ctu-info=0 / no-lowpass-dct / refine-mv-type=0 / copy-pic=1 / max-ausize-factor=1.0 / no-dynamic-refine / no-single-sei
  23. Default : Yes
  24. Alternate group : 1
  25. Encoded date : UTC 2021-10-05 06:28:26
  26. Tagged date : UTC 2021-10-05 06:31:27
  27. Color range : Full
  28. Codec configuration box : hvcC+dvcC

  29. Audio
  30. ID : 2
  31. Format : AC-3
  32. Format/Info : Audio Coding 3
  33. Commercial name : Dolby Digital
  34. Codec ID : ac-3
  35. Duration : 1 h 33 min
  36. Bit rate mode : Constant
  37. Bit rate : 384 kb/s
  38. Maximum bit rate : 406 kb/s
  39. Channel(s) : 6 channels
  40. Channel layout : L R C LFE Ls Rs
  41. Sampling rate : 48.0 kHz
  42. Frame rate : 31.250 FPS (1536 SPF)
  43. Compression mode : Lossy
  44. Stream size : 257 MiB (3%)
  45. Title : English
  46. Language : English
  47. Service kind : Complete Main
  48. Default : Yes
  49. Alternate group : 1
  50. Tagged date : UTC 2021-10-05 06:31:27

  51. Text
  52. ID : 3
  53. Format : Timed Text
  54. Codec ID : tx3g
  55. Duration : 1 h 30 min
  56. Bit rate mode : Variable
  57. Bit rate : 108 b/s
  58. Stream size : 71.3 KiB (0%)
  59. Title : English
  60. Language : English
  61. Forced : No
  62. Encoded date : UTC 2021-10-05 06:31:27
  63. Tagged date : UTC 2021-10-05 06:31:27
复制代码

The Coolest Girl in the World / 8th Grade/八年级4k Eighth.Grade.2018.2160p.WEB-DL.DD5.1.DV.MP4.x265-4k电影下载

八年级4k Eighth.Grade.2018.2160p.WEB-DL.DD5.1.DV.MP4.x265【4k 杜比视界 9.97 GB】
[Hao4k]八年级4k Eighth.Grade.2018.2160p.WEB-DL.DD5.1.DV.MP4.x265-DVSUX.torrent (25.57 KB, 售价: 2 个K币)
回复

使用道具 举报

全部回复2

bbgrnnji 发表于 2021-10-6 09:23:33

bbgrnnji 2

2021-10-6 09:23:33

谢谢楼主发片子
回复 支持 反对

使用道具 举报

wangfeng1979 发表于 2021-10-8 07:29:33

wangfeng1979 3

2021-10-8 07:29:33

人家八年级都谈恋爱了,真是羡慕
回复 支持 反对

使用道具 举报

   发表回复

您需要登录后才可以回帖 登录 | 立即注册

返回列表 本版积分规则

  • 在线客服

  • 返回顶部