微博 微信

Hao4K影音

电影频道
电影封面:
片  名: 断裂4k
电影分类: 惊悚 
国  家: 美国 
年  代: 2019年
分 辨 率: 4K(3840x2160)
电影格式: MKV|REMUX 
画质标准: HDR 
音质编码: Dolby Digital Plus Audio 
电影声道: 5.1声道 
帧数/FPS: 24.000 帧
电影语言: 中文简体 中文繁体 英文原版 
资源大小: 8.55 GB
导  演: 布拉德·安德森
豆瓣评分: 6.9 分
中文字幕: -
剧情简介: 雷·门罗(萨姆·沃辛顿饰)是一个好心但不堪重负的居家男人。在与岳父岳母度过一个紧张的假日周末后,雷带着妻子乔安妮(莉莉·拉贝饰)和女儿佩里(露西·卡普里饰)开车回家,途中驶入一个休息区。然而屋漏偏逢阴雨夜,佩里在事故中受伤。一家人急忙带着她来到附近一个急诊室,这里的工作人员看似有些意图可疑。被送去做进一步检测后,佩里与乔安妮失踪了,他们所有的访问记录也消失不见。雷的担忧成了真:他必须争分夺秒寻找家人,并搞清他们究竟遭遇了什么。
断线(台) / 曲折(港)/断裂4k Fractured.2019.2160p.NF.WEBRip.x265.10bit.HDR.DDP5.1.Atmos4k电影信息
  1. Video
  2. ID : 1
  3. Format : HEVC
  4. Format/Info : High Efficiency Video Coding
  5. Format profile : Main 10@L5.1@High
  6. HDR format : SMPTE ST 2086, HDR10 compatible
  7. Codec ID : V_MPEGH/ISO/HEVC
  8. Duration : 1 h 39 min
  9. Bit rate : 11.6 Mb/s
  10. Width : 3 840 pixels
  11. Height : 1 604 pixels
  12. Display aspect ratio : 2.40:1
  13. Frame rate mode : Constant
  14. Frame rate : 24.000 FPS
  15. Color space : YUV
  16. Chroma subsampling : 4:2:0 (Type 2)
  17. Bit depth : 10 bits
  18. Bits/(Pixel*Frame) : 0.078
  19. Stream size : 8.01 GiB (94%)
  20. Writing library : x265 3.1+4-4f6dde51a5db:[Windows][GCC 6.3.0][64 bit] 10bit
  21. Encoding settings : cpuid=1111039 / frame-threads=5 / numa-pools=12 / wpp / no-pmode / no-pme / no-psnr / no-ssim / log-level=2 / input-csp=1 / input-res=3840x1604 / interlace=0 / total-frames=142848 / level-idc=51 / high-tier=1 / uhd-bd=0 / ref=4 / no-allow-non-conformance / repeat-headers / annexb / aud / hrd / info / hash=0 / no-temporal-layers / no-open-gop / min-keyint=24 / keyint=240 / gop-lookahead=0 / bframes=4 / b-adapt=2 / b-pyramid / bframe-bias=0 / rc-lookahead=25 / lookahead-slices=4 / scenecut=40 / radl=0 / no-splice / no-intra-refresh / ctu=64 / min-cu-size=8 / rect / no-amp / max-tu-size=32 / tu-inter-depth=1 / tu-intra-depth=1 / limit-tu=0 / rdoq-level=2 / dynamic-rd=0.00 / no-ssim-rd / signhide / no-tskip / nr-intra=0 / nr-inter=0 / no-constrained-intra / no-strong-intra-smoothing / max-merge=3 / limit-refs=3 / limit-modes / me=3 / subme=3 / merange=57 / temporal-mvp / weightp / no-weightb / no-analyze-src-pics / deblock=-3:-3 / no-sao / no-sao-non-deblock / rd=4 / no-early-skip / rskip / no-fast-intra / no-tskip-fast / no-cu-lossless / no-b-intra / no-splitrd-skip / rdpenalty=0 / psy-rd=2.00 / psy-rdoq=1.00 / no-rd-refine / no-lossless / cbqpoffs=0 / crqpoffs=0 / rc=crf / crf=10.0 / qcomp=0.60 / qpstep=4 / stats-write=0 / stats-read=0 / vbv-maxrate=160000 / vbv-bufsize=160000 / vbv-init=0.9 / crf-max=0.0 / crf-min=0.0 / ipratio=1.40 / pbratio=1.30 / aq-mode=2 / aq-strength=1.00 / cutree / zone-count=0 / no-strict-cbr / qg-size=32 / no-rc-grain / qpmax=69 / qpmin=0 / no-const-vbv / sar=1 / overscan=0 / videoformat=5 / range=0 / colorprim=9 / transfer=16 / colormatrix=9 / chromaloc=1 / chromaloc-top=2 / chromaloc-bottom=2 / display-window=0 / master-display=G(13250,34500)B(7500,3000)R(34000,16000)WP(15635,16450)L(40000000,50)cll=738,130 / min-luma=0 / max-luma=1023 / log2-max-poc-lsb=8 / vui-timing-info / vui-hrd-info / slices=1 / no-opt-qp-pps / no-opt-ref-list-length-pps / no-multi-pass-opt-rps / scenecut-bias=0.05 / no-opt-cu-delta-qp / no-aq-motion / hdr / hdr-opt / no-dhdr10-opt / no-idr-recovery-sei / analysis-reuse-level=5 / scale-factor=0 / refine-intra=0 / refine-inter=0 / refine-mv=0 / refine-ctu-distortion=0 / no-limit-sao / ctu-info=0 / no-lowpass-dct / refine-analysis-type=0 / copy-pic=1 / max-ausize-factor=1.0 / no-dynamic-refine / no-single-sei / no-hevc-aq / no-svt / no-field / qp-adaptation-range=1.00
  22. Default : Yes
  23. Forced : No
  24. Color range : Limited
  25. Color primaries : BT.2020
  26. Transfer characteristics : PQ
  27. Matrix coefficients : BT.2020 non-constant
  28. Mastering display color primaries : Display P3
  29. Mastering display luminance : min: 0.0050 cd/m2, max: 4000 cd/m2
  30. Maximum Content Light Level : 738 cd/m2
  31. Maximum Frame-Average Light Level : 130 cd/m2

  32. Audio
  33. ID : 2
  34. Format : E-AC-3 JOC
  35. Format/Info : Enhanced AC-3 with Joint Object Coding
  36. Commercial name : Dolby Digital Plus with Dolby Atmos
  37. Codec ID : A_EAC3
  38. Duration : 1 h 40 min
  39. Bit rate mode : Constant
  40. Bit rate : 768 kb/s
  41. Channel(s) : 6 channels
  42. Channel layout : L R C LFE Ls Rs
  43. Sampling rate : 48.0 kHz
  44. Frame rate : 31.250 FPS (1536 SPF)
  45. Compression mode : Lossy
  46. Delay relative to video : 24 ms
  47. Stream size : 550 MiB (6%)
  48. Title : English
  49. Language : English
  50. Service kind : Complete Main
  51. Default : Yes
  52. Forced : No
  53. Complexity index : 16
  54. Number of dynamic objects : 15
  55. Bed channel count : 1 channel
  56. Bed channel configuration : LFE

  57. Text #1
  58. ID : 3
  59. Format : UTF-8
  60. Codec ID : S_TEXT/UTF8
  61. Codec ID/Info : UTF-8 Plain Text
  62. Duration : 1 h 31 min
  63. Bit rate : 65 b/s
  64. Count of elements : 1406
  65. Stream size : 43.9 KiB (0%)
  66. Language : English
  67. Default : No
  68. Forced : No

  69. Text #2
  70. ID : 4
  71. Format : UTF-8
  72. Codec ID : S_TEXT/UTF8
  73. Codec ID/Info : UTF-8 Plain Text
  74. Duration : 1 h 35 min
  75. Bit rate : 75 b/s
  76. Count of elements : 1631
  77. Stream size : 52.9 KiB (0%)
  78. Title : SDH
  79. Language : English
  80. Default : No
  81. Forced : No

  82. Text #3
  83. ID : 5
  84. Format : UTF-8
  85. Codec ID : S_TEXT/UTF8
  86. Codec ID/Info : UTF-8 Plain Text
  87. Duration : 1 h 32 min
  88. Bit rate : 51 b/s
  89. Count of elements : 1366
  90. Stream size : 35.4 KiB (0%)
  91. Title : Latin America
  92. Language : Spanish
  93. Default : No
  94. Forced : No

  95. Text #4
  96. ID : 6
  97. Format : UTF-8
  98. Codec ID : S_TEXT/UTF8
  99. Codec ID/Info : UTF-8 Plain Text
  100. Duration : 1 h 31 min
  101. Bit rate : 51 b/s
  102. Count of elements : 1351
  103. Stream size : 34.6 KiB (0%)
  104. Language : Spanish
  105. Default : No
  106. Forced : No

  107. Text #5
  108. ID : 7
  109. Format : UTF-8
  110. Codec ID : S_TEXT/UTF8
  111. Codec ID/Info : UTF-8 Plain Text
  112. Duration : 1 h 31 min
  113. Bit rate : 59 b/s
  114. Count of elements : 1409
  115. Stream size : 39.5 KiB (0%)
  116. Title : Brazilian
  117. Language : Portuguese
  118. Default : No
  119. Forced : No

  120. Text #6
  121. ID : 8
  122. Format : UTF-8
  123. Codec ID : S_TEXT/UTF8
  124. Codec ID/Info : UTF-8 Plain Text
  125. Duration : 1 h 32 min
  126. Bit rate : 54 b/s
  127. Count of elements : 1308
  128. Stream size : 36.9 KiB (0%)
  129. Language : German
  130. Default : No
  131. Forced : No

  132. Text #7
  133. ID : 9
  134. Format : UTF-8
  135. Codec ID : S_TEXT/UTF8
  136. Codec ID/Info : UTF-8 Plain Text
  137. Duration : 1 h 31 min
  138. Bit rate : 62 b/s
  139. Count of elements : 1378
  140. Stream size : 41.9 KiB (0%)
  141. Language : French
  142. Default : No
  143. Forced : No

  144. Text #8
  145. ID : 10
  146. Format : UTF-8
  147. Codec ID : S_TEXT/UTF8
  148. Codec ID/Info : UTF-8 Plain Text
  149. Duration : 1 h 37 min
  150. Bit rate : 58 b/s
  151. Count of elements : 1555
  152. Stream size : 41.7 KiB (0%)
  153. Title : Simplified
  154. Language : Chinese
  155. Default : No
  156. Forced : No

  157. Text #9
  158. ID : 11
  159. Format : UTF-8
  160. Codec ID : S_TEXT/UTF8
  161. Codec ID/Info : UTF-8 Plain Text
  162. Duration : 1 h 31 min
  163. Bit rate : 59 b/s
  164. Count of elements : 1467
  165. Stream size : 39.7 KiB (0%)
  166. Title : Traditional
  167. Language : Chinese
  168. Default : No
  169. Forced : No
复制代码


断线(台) / 曲折(港)/断裂4k Fractured.2019.2160p.NF.WEBRip.x265.10bit.HDR.DDP5.1.Atmos-4k电影下载

断裂4k Fractured.2019.2160p.NF.WEBRip.x265.10bit.HDR.DDP5.1.Atmos【4k HDR 8.55GB】
[Hao4k]断裂4k Fractured.2019.2160p.NF.WEBRip.x265.10bit.HDR.DDP5.1.Atmos-182K.torrent (22.02 KB, 售价: 3 个K币)
回复

使用道具 举报

全部回复17

les5332295 发表于 2021-10-5 20:05:32

les5332295 2

2021-10-5 20:05:32

又是一部惊悚片,谢谢分享
回复 支持 反对

使用道具 举报

阿尔卑斯的雪 发表于 2021-10-5 21:08:20

阿尔卑斯的雪 3

2021-10-5 21:08:20

感觉是一部惊悚悬疑片,可以看看
回复 支持 反对

使用道具 举报

night8 发表于 2021-10-5 21:19:04 Hao4K手机版

night8 4

2021-10-5 21:19:04

这个片子有点意思,推荐观看。
回复 支持 1 反对 0

使用道具 举报

QQ_1C652F 发表于 2021-10-5 22:07:30

QQ_1C652F 5

2021-10-5 22:07:30

谢谢楼主无私分享
回复 支持 反对

使用道具 举报

pentium450 发表于 2021-10-5 23:36:33

pentium450 6

2021-10-5 23:36:33

有没有中文字幕?
回复 支持 反对

使用道具 举报

bbgrnnji 发表于 2021-10-6 09:21:19

bbgrnnji 7

2021-10-6 09:21:19

这个估计还可以
回复 支持 反对

使用道具 举报

pblppp 发表于 2021-10-6 09:59:39

pblppp 8

2021-10-6 09:59:39

谢谢楼主分享 !
回复 支持 反对

使用道具 举报

091 发表于 2021-10-6 13:43:47

091 9

2021-10-6 13:43:47

是一部惊悚片,谢谢分享
回复 支持 反对

使用道具 举报

r31325 发表于 2021-10-6 17:36:48

r31325 10

2021-10-6 17:36:48

喜欢这个诸神之战的男主
回复 支持 反对

使用道具 举报

凯x因素 发表于 2021-10-6 20:37:14

凯x因素 11

2021-10-6 20:37:14

谢谢分享啊,谢谢
回复 支持 反对

使用道具 举报

hhhz 发表于 2021-10-6 21:27:53

hhhz 12

2021-10-6 21:27:53

男主角不错,下来看看。
回复 支持 反对

使用道具 举报

wangfeng1979 发表于 2021-10-8 07:24:21

wangfeng1979 13

2021-10-8 07:24:21

现在感觉悬疑惊悚片都还可以,起码看了看头不知道结尾
回复 支持 反对

使用道具 举报

Finder4Ix 发表于 2021-10-9 06:40:50

Finder4Ix 14

2021-10-9 06:40:50

是不是那个给自己女儿建了一个时间泡泡的片子?
回复 支持 反对

使用道具 举报

kskchn 发表于 7 天前

kskchn 15

7 天前

内嵌中文,但是这个片源有些地方掉帧啊,一卡一卡的,很难受,介意的不用下载了。一开始以为是我电脑卡了,用手机放也是一样掉帧
回复 支持 反对

使用道具 举报

yzguan 发表于 7 天前

yzguan 16

7 天前

评分很高的电影,谢谢楼主
回复 支持 反对

使用道具 举报

yuuuu1942 发表于 5 天前

yuuuu1942 17

5 天前

这个片子有点意思,谢谢楼主
回复 支持 反对

使用道具 举报

woaaida 发表于 4 天前

woaaida 18

4 天前

这个片源会出现画面掉帧的现象啊,放其他片没有这种现象,你们有吗?
回复 支持 反对

使用道具 举报

   发表回复

您需要登录后才可以回帖 登录 | 立即注册

返回列表 本版积分规则

  • 在线客服

  • 返回顶部