微博 微信

Hao4K影音

电影频道
电影封面:
片  名: 诡屋惊魂4k
电影分类: 恐怖 惊悚 悬疑 
国  家: 英国 
年  代: 2021年
分 辨 率: 4K(3840x2160)
电影格式: MKV|REMUX 
画质标准: HDR 
音质编码: Dolby Digital Plus Audio 
电影声道: 5.1声道 
帧数/FPS: 24.000 帧
电影语言: 中文简体 中文繁体 英文原版 
资源大小: 11.09 GB
导  演: 桑迪亚哥·蒙希尼
豆瓣评分: 5.4 分
中文字幕: -
剧情简介: 安巴尔是一名追寻美国梦的移民,但在被迫住进一栋寄宿公寓后,她发现自己陷入了一场无法逃脱的噩梦。
战栗公寓 / 杀无舍 / 无人生还/诡屋惊魂4kNo.One.Gets.Out.Alive.2021.2160p.NF.WEBRip.x265.10bit.HDR.DDP5.1.Atmos-4k电影信息
  1. Video
  2. ID : 1
  3. Format : HEVC
  4. Format/Info : High Efficiency Video Coding
  5. Format profile : Main 10@L5.1@High
  6. HDR format : SMPTE ST 2086, HDR10 compatible
  7. Codec ID : V_MPEGH/ISO/HEVC
  8. Duration : 1 h 25 min
  9. Bit rate : 17.8 Mb/s
  10. Width : 3 840 pixels
  11. Height : 1 696 pixels
  12. Display aspect ratio : 2.25:1
  13. Frame rate mode : Constant
  14. Frame rate : 24.000 FPS
  15. Color space : YUV
  16. Chroma subsampling : 4:2:0 (Type 2)
  17. Bit depth : 10 bits
  18. Bits/(Pixel*Frame) : 0.114
  19. Stream size : 10.6 GiB (96%)
  20. Writing library : x265 3.5+9-bf91444e0:[Windows][GCC 10.0.0][64 bit] 10bit
  21. Encoding settings : cpuid=1111039 / frame-threads=4 / numa-pools=16 / wpp / no-pmode / no-pme / no-psnr / no-ssim / log-level=2 / input-csp=1 / input-res=3840x1696 / interlace=0 / total-frames=0 / level-idc=51 / high-tier=1 / uhd-bd=0 / ref=4 / no-allow-non-conformance / repeat-headers / annexb / no-aud / no-eob / no-eos / no-hrd / info / hash=0 / no-temporal-layers / no-open-gop / min-keyint=24 / keyint=250 / gop-lookahead=0 / bframes=3 / b-adapt=2 / b-pyramid / bframe-bias=0 / rc-lookahead=20 / lookahead-slices=8 / scenecut=40 / hist-scenecut=0 / radl=0 / no-splice / no-intra-refresh / ctu=64 / min-cu-size=8 / no-rect / no-amp / max-tu-size=32 / tu-inter-depth=1 / tu-intra-depth=1 / limit-tu=0 / rdoq-level=0 / dynamic-rd=0.00 / no-ssim-rd / signhide / no-tskip / nr-intra=0 / nr-inter=0 / no-constrained-intra / no-strong-intra-smoothing / max-merge=3 / limit-refs=1 / no-limit-modes / me=1 / subme=2 / merange=57 / temporal-mvp / no-frame-dup / no-hme / weightp / no-weightb / no-analyze-src-pics / deblock=-3:-3 / no-sao / no-sao-non-deblock / rd=3 / selective-sao=0 / early-skip / rskip / no-fast-intra / no-tskip-fast / no-cu-lossless / b-intra / no-splitrd-skip / rdpenalty=0 / psy-rd=2.00 / psy-rdoq=0.00 / no-rd-refine / no-lossless / cbqpoffs=0 / crqpoffs=0 / rc=crf / crf=19.0 / qcomp=0.60 / qpstep=4 / stats-write=0 / stats-read=0 / vbv-maxrate=160000 / vbv-bufsize=160000 / vbv-init=0.9 / min-vbv-fullness=50.0 / max-vbv-fullness=80.0 / crf-max=0.0 / crf-min=0.0 / ipratio=1.40 / pbratio=1.30 / aq-mode=2 / aq-strength=1.00 / no-cutree / zone-count=0 / no-strict-cbr / qg-size=32 / no-rc-grain / qpmax=69 / qpmin=0 / no-const-vbv / sar=0 / overscan=0 / videoformat=5 / range=0 / colorprim=9 / transfer=16 / colormatrix=9 / chromaloc=1 / chromaloc-top=2 / chromaloc-bottom=2 / display-window=0 / master-display=G(13250,34500)B(7500,3000)R(34000,16000)WP(15635,16450)L(10000000,1) / cll=998,144 / min-luma=0 / max-luma=1023 / log2-max-poc-lsb=8 / vui-timing-info / vui-hrd-info / slices=1 / no-opt-qp-pps / no-opt-ref-list-length-pps / no-multi-pass-opt-rps / scenecut-bias=0.05 / hist-threshold=0.03 / no-opt-cu-delta-qp / no-aq-motion / hdr10 / hdr10-opt / no-dhdr10-opt / no-idr-recovery-sei / analysis-reuse-level=0 / analysis-save-reuse-level=0 / analysis-load-reuse-level=0 / scale-factor=0 / refine-intra=0 / refine-inter=0 / refine-mv=1 / refine-ctu-distortion=0 / no-limit-sao / ctu-info=0 / no-lowpass-dct / refine-analysis-type=0 / copy-pic=1 / max-ausize-factor=1.0 / no-dynamic-refine / no-single-sei / no-hevc-aq / no-svt / no-field / qp-adaptation-range=1.00 / scenecut-aware-qp=0conformance-window-offsets / right=0 / bottom=0 / decoder-max-rate=0 / no-vbv-live-multi-pass
  22. Default : Yes
  23. Forced : No
  24. Color range : Limited
  25. Color primaries : BT.2020
  26. Transfer characteristics : PQ
  27. Matrix coefficients : BT.2020 non-constant
  28. Mastering display color primaries : Display P3
  29. Mastering display luminance : min: 0.0001 cd/m2, max: 1000 cd/m2
  30. Maximum Content Light Level : 998 cd/m2
  31. Maximum Frame-Average Light Level : 144 cd/m2

  32. Audio
  33. ID : 2
  34. Format : E-AC-3 JOC
  35. Format/Info : Enhanced AC-3 with Joint Object Coding
  36. Commercial name : Dolby Digital Plus with Dolby Atmos
  37. Codec ID : A_EAC3
  38. Duration : 1 h 27 min
  39. Bit rate mode : Constant
  40. Bit rate : 768 kb/s
  41. Channel(s) : 6 channels
  42. Channel layout : L R C LFE Ls Rs
  43. Sampling rate : 48.0 kHz
  44. Frame rate : 31.250 FPS (1536 SPF)
  45. Compression mode : Lossy
  46. Delay relative to video : 25 ms
  47. Stream size : 480 MiB (4%)
  48. Language : English
  49. Service kind : Complete Main
  50. Default : Yes
  51. Forced : No
  52. Complexity index : 16
  53. Number of dynamic objects : 15
  54. Bed channel count : 1 channel
  55. Bed channel configuration : LFE

  56. Text #1
  57. ID : 3
  58. Format : UTF-8
  59. Codec ID : S_TEXT/UTF8
  60. Codec ID/Info : UTF-8 Plain Text
  61. Duration : 1 h 17 min
  62. Bit rate : 29 b/s
  63. Count of elements : 660
  64. Stream size : 16.8 KiB (0%)
  65. Language : English
  66. Default : No
  67. Forced : No

  68. Text #2
  69. ID : 4
  70. Format : UTF-8
  71. Codec ID : S_TEXT/UTF8
  72. Codec ID/Info : UTF-8 Plain Text
  73. Duration : 1 h 24 min
  74. Bit rate : 44 b/s
  75. Count of elements : 1072
  76. Stream size : 27.1 KiB (0%)
  77. Title : SDH
  78. Language : English
  79. Default : No
  80. Forced : No

  81. Text #3
  82. ID : 5
  83. Format : UTF-8
  84. Codec ID : S_TEXT/UTF8
  85. Codec ID/Info : UTF-8 Plain Text
  86. Duration : 1 h 25 min
  87. Bit rate : 21 b/s
  88. Count of elements : 551
  89. Stream size : 13.4 KiB (0%)
  90. Title : Latin America
  91. Language : Spanish
  92. Default : No
  93. Forced : No

  94. Text #4
  95. ID : 6
  96. Format : UTF-8
  97. Codec ID : S_TEXT/UTF8
  98. Codec ID/Info : UTF-8 Plain Text
  99. Duration : 1 h 25 min
  100. Bit rate : 21 b/s
  101. Count of elements : 555
  102. Stream size : 13.4 KiB (0%)
  103. Language : Spanish
  104. Default : No
  105. Forced : No

  106. Text #5
  107. ID : 7
  108. Format : UTF-8
  109. Codec ID : S_TEXT/UTF8
  110. Codec ID/Info : UTF-8 Plain Text
  111. Duration : 1 h 25 min
  112. Bit rate : 25 b/s
  113. Count of elements : 615
  114. Stream size : 16.0 KiB (0%)
  115. Title : Brazilian
  116. Language : Portuguese
  117. Default : No
  118. Forced : No

  119. Text #6
  120. ID : 8
  121. Format : UTF-8
  122. Codec ID : S_TEXT/UTF8
  123. Codec ID/Info : UTF-8 Plain Text
  124. Duration : 1 h 25 min
  125. Bit rate : 25 b/s
  126. Count of elements : 640
  127. Stream size : 16.1 KiB (0%)
  128. Language : German
  129. Default : No
  130. Forced : No

  131. Text #7
  132. ID : 9
  133. Format : UTF-8
  134. Codec ID : S_TEXT/UTF8
  135. Codec ID/Info : UTF-8 Plain Text
  136. Duration : 1 h 25 min
  137. Bit rate : 24 b/s
  138. Count of elements : 637
  139. Stream size : 15.4 KiB (0%)
  140. Language : French
  141. Default : No
  142. Forced : No

  143. Text #8
  144. ID : 10
  145. Format : UTF-8
  146. Codec ID : S_TEXT/UTF8
  147. Codec ID/Info : UTF-8 Plain Text
  148. Duration : 1 h 25 min
  149. Bit rate : 27 b/s
  150. Count of elements : 657
  151. Stream size : 16.9 KiB (0%)
  152. Title : Simplified
  153. Language : Chinese
  154. Default : No
  155. Forced : No

  156. Text #9
  157. ID : 11
  158. Format : UTF-8
  159. Codec ID : S_TEXT/UTF8
  160. Codec ID/Info : UTF-8 Plain Text
  161. Duration : 1 h 25 min
  162. Bit rate : 26 b/s
  163. Count of elements : 663
  164. Stream size : 16.7 KiB (0%)
  165. Title : Traditional
  166. Language : Chinese
  167. Default : No
  168. Forced : No
复制代码

战栗公寓 / 杀无舍 / 无人生还/诡屋惊魂4kNo.One.Gets.Out.Alive.2021.2160p.NF.WEBRip.x265.10bit.HDR.DDP5.1.Atmos-4k电影下载
诡屋惊魂4kNo.One.Gets.Out.Alive.2021.2160p.NF.WEBRip.x265.10bit.HDR.DDP5.1.Atmos简繁中字【4k HDR 11.09】
[Hao4k]诡屋惊魂4k No.One.Gets.Out.Alive.2021.2160p.NF.WEBRip.x265.10bit.HDR.DDP5.1.Atmos-182K.torrent (14.52 KB, 售价: 2 个K币)
回复

使用道具 举报

全部回复5

宁波江南犬舍 发表于 2021-10-5 21:18:04

宁波江南犬舍 2

2021-10-5 21:18:04

今年还有口碑较好的    阴声    饥饿站台  有没有可能搞来4K版啊   大神们
回复 支持 反对

使用道具 举报

QQ_1C652F 发表于 2021-10-5 22:08:08

QQ_1C652F 3

2021-10-5 22:08:08

谢谢楼主无私分享
回复 支持 反对

使用道具 举报

bbgrnnji 发表于 2021-10-6 09:20:02

bbgrnnji 4

2021-10-6 09:20:02

不知道是恐怖片喜欢4K还是4K喜欢恐怖片
回复 支持 反对

使用道具 举报

liyun80000 发表于 2021-10-6 12:49:59

liyun80000 5

2021-10-6 12:49:59

谢谢楼主分享
回复 支持 反对

使用道具 举报

yzguan 发表于 7 天前

yzguan 6

7 天前

谢谢楼主分享,但评分有点低
回复 支持 反对

使用道具 举报

   发表回复

您需要登录后才可以回帖 登录 | 立即注册

返回列表 本版积分规则

  • 在线客服

  • 返回顶部