微博 微信 手机APP

Hao4K影音

电影频道
电影封面:
片  名: 房间4k
电影分类: 剧情 其他 
国  家: 美国 英国 加拿大 其他 
年  代: 2015年
分 辨 率: 4K(3840x2160)
电影格式: MKV|REMUX 
画质标准: SDR 
音质编码: DTS-HD Master Audio 
电影声道: 5.1声道 
帧数/FPS: 23.976 帧
电影语言: 英文原版 
资源大小: 14.50 GB
导  演: 伦尼·阿伯拉罕森
豆瓣评分: 8.8 分
中文字幕: /thread-62940-1-1.html
剧情简介:  女孩乔伊(布丽·拉尔森 Brie Larson 饰)被一个叫“老尼克”的男人拐骗,之后被他囚禁在其房子后院的棚屋里长达七年之久。在此期间她遭到强奸,并生下儿子杰克(雅各布·特伦布莱 Jacob Tremblay 饰)。靠着老尼克时不时的物资补给,母子二人艰难度日。尽管如此,母亲还是竭尽所能,为儿子杰克创造了一个安全而开心的成长空间。这个狭小逼仄的房间,成了杰克生活成长的神奇小天地。在杰克度过了他的五岁生日后,母亲决定告诉他真相,在这个小小的房间外面,有着更广阔的世界。他们开始策划逃跑计划,决心要逃出这个囚禁他们的房间……
  本片根据艾玛·唐纳修的同名小说改编。
不存在的房间(台) / 抖室(港)/房间4k Room.2015.2160p.WEB-DL.x265.8bit.SDR.DTS-HD.MA.5.1-4k电影信息
  1. Video
  2. ID : 1
  3. Format : HEVC
  4. Format/Info : High Efficiency Video Coding
  5. Format profile : Main@L5@Main
  6. Codec ID : V_MPEGH/ISO/HEVC
  7. Duration : 1 h 57 min
  8. Bit rate : 14.3 Mb/s
  9. Width : 3 840 pixels
  10. Height : 2 160 pixels
  11. Display aspect ratio : 16:9
  12. Frame rate mode : Constant
  13. Frame rate : 23.976 (24000/1001) FPS
  14. Color space : YUV
  15. Chroma subsampling : 4:2:0
  16. Bit depth : 8 bits
  17. Bits/(Pixel*Frame) : 0.072
  18. Stream size : 11.7 GiB (81%)
  19. Writing library : x265 2.8hy:[Linux][GCC 7.5.0][64 bit] 8bit
  20. Encoding settings : cpuid=1111039 / frame-threads=1 / no-wpp / no-pmode / no-pme / no-psnr / no-ssim / log-level=2 / input-csp=1 / input-res=3840x2160 / interlace=0 / total-frames=0 / level-idc=0 / high-tier=1 / uhd-bd=0 / ref=4 / no-allow-non-conformance / repeat-headers / annexb / aud / hrd / info / hash=0 / no-temporal-layers / no-open-gop / min-keyint=48 / keyint=48 / gop-lookahead=0 / bframes=4 / b-adapt=2 / b-pyramid / bframe-bias=0 / rc-lookahead=48 / lookahead-slices=4 / scenecut=0 / radl=0 / no-intra-refresh / ctu=64 / min-cu-size=8 / rect / no-amp / max-tu-size=32 / tu-inter-depth=1 / tu-intra-depth=1 / limit-tu=0 / rdoq-level=2 / dynamic-rd=0.00 / no-ssim-rd / signhide / no-tskip / nr-intra=100 / nr-inter=400 / no-constrained-intra / strong-intra-smoothing / max-merge=3 / limit-refs=3 / limit-modes / me=3 / subme=3 / merange=57 / temporal-mvp / weightp / no-weightb / no-analyze-src-pics / deblock=0:0 / sao / no-sao-non-deblock / rd=4 / no-early-skip / rskip / no-fast-intra / no-tskip-fast / no-cu-lossless / no-b-intra / no-splitrd-skip / rdpenalty=0 / psy-rd=0.00 / psy-rdoq=1.00 / no-rd-refine / no-lossless / cbqpoffs=0 / crqpoffs=0 / rc=abr / bitrate=15000 / qcomp=0.60 / qpstep=4 / stats-write=0 / stats-read=2 / cplxblur=20.0 / qblur=0.5 / vbv-maxrate=18000 / vbv-bufsize=12000 / vbv-init=0.6 / vbv-end=0.6 / vbv-end-fr-adj=0.0 / ipratio=1.40 / pbratio=1.30 / aq-mode=1 / aq-strength=1.00 / cutree / zone-count=0 / no-strict-cbr / qg-size=32 / no-rc-grain / qpmax=69 / qpmin=0 / no-const-vbv / sar=1 / overscan=0 / videoformat=5 / range=0 / colorprim=1 / transfer=1 / colormatrix=1 / chromaloc=0 / display-window=0 / max-cll=0,0 / min-luma=0 / max-luma=255 / log2-max-poc-lsb=8 / vui-timing-info / vui-hrd-info / no-concatenation / slices=1 / no-opt-qp-pps / no-opt-ref-list-length-pps / no-multi-pass-opt-rps / scenecut-bias=0.05 / no-opt-cu-delta-qp / no-aq-motion / no-hdr / no-hdr-opt / no-dhdr10-opt / no-idr-recovery-sei / analysis-reuse-level=5 / scale-factor=0 / refine-intra=0 / refine-inter=0 / refine-mv=0 / no-limit-sao / ctu-info=0 / no-lowpass-dct / refine-mv-type=0 / copy-pic=1 / max-ausize-factor=1.0 / no-dynamic-refine / no-single-sei
  21. Default : Yes
  22. Forced : No
  23. Color range : Limited
  24. Color primaries : BT.709
  25. Transfer characteristics : BT.709
  26. Matrix coefficients : BT.709

  27. Audio #1
  28. ID : 2
  29. Format : DTS XLL
  30. Format/Info : Digital Theater Systems
  31. Commercial name : DTS-HD Master Audio
  32. Codec ID : A_DTS
  33. Duration : 1 h 57 min
  34. Bit rate mode : Variable
  35. Bit rate : 2 966 kb/s
  36. Channel(s) : 6 channels
  37. Channel layout : C L R Ls Rs LFE
  38. Sampling rate : 48.0 kHz
  39. Frame rate : 93.750 FPS (512 SPF)
  40. Bit depth : 24 bits
  41. Compression mode : Lossless
  42. Delay relative to video : 2 ms
  43. Stream size : 2.43 GiB (17%)
  44. Title : DTS-HD MA 5.1
  45. Language : English
  46. Default : Yes
  47. Forced : No

  48. Audio #2
  49. ID : 3
  50. Format : AC-3
  51. Format/Info : Audio Coding 3
  52. Commercial name : Dolby Digital
  53. Codec ID : A_AC3
  54. Duration : 1 h 57 min
  55. Bit rate mode : Constant
  56. Bit rate : 384 kb/s
  57. Channel(s) : 6 channels
  58. Channel layout : L R C LFE Ls Rs
  59. Sampling rate : 48.0 kHz
  60. Frame rate : 31.250 FPS (1536 SPF)
  61. Compression mode : Lossy
  62. Stream size : 323 MiB (2%)
  63. Language : English
  64. Service kind : Complete Main
  65. Default : Yes
  66. Forced : No

  67. Text #1
  68. ID : 4
  69. Format : UTF-8
  70. Codec ID : S_TEXT/UTF8
  71. Codec ID/Info : UTF-8 Plain Text
  72. Duration : 1 h 50 min
  73. Bit rate : 76 b/s
  74. Count of elements : 2230
  75. Stream size : 61.7 KiB (0%)
  76. Title : SRT
  77. Language : English
  78. Default : Yes
  79. Forced : No

  80. Text #2
  81. ID : 5
  82. Format : PGS
  83. Muxing mode : zlib
  84. Codec ID : S_HDMV/PGS
  85. Codec ID/Info : Picture based subtitle format used on BDs/HD-DVDs
  86. Duration : 1 h 51 min
  87. Bit rate : 32.3 kb/s
  88. Count of elements : 3518
  89. Stream size : 25.7 MiB (0%)
  90. Title : English (SDH)
  91. Language : English
  92. Default : No
  93. Forced : No

  94. Text #3
  95. ID : 6
  96. Format : PGS
  97. Muxing mode : zlib
  98. Codec ID : S_HDMV/PGS
  99. Codec ID/Info : Picture based subtitle format used on BDs/HD-DVDs
  100. Duration : 1 h 50 min
  101. Bit rate : 29.3 kb/s
  102. Count of elements : 2465
  103. Stream size : 23.1 MiB (0%)
  104. Title : Spanish (Latin American)
  105. Language : Spanish
  106. Default : No
  107. Forced : No

  108. Menu
  109. 00:00:00.000 : Chapter 1
  110. 00:07:07.427 : Chapter 2
  111. 00:12:23.033 : Chapter 3
  112. 00:24:29.759 : Chapter 4
  113. 00:31:11.786 : Chapter 5
  114. 00:37:16.859 : Chapter 6
  115. 00:47:27.761 : Chapter 7
  116. 00:52:27.018 : Chapter 8
  117. 00:59:46.040 : Chapter 9
  118. 01:09:29.582 : Chapter 10
  119. 01:16:51.523 : Chapter 11
  120. 01:23:52.861 : Chapter 12
  121. 01:31:30.943 : Chapter 13
  122. 01:37:03.150 : Chapter 14
  123. 01:43:28.493 : Chapter 15
  124. 01:48:23.955 : Chapter 16
复制代码

不存在的房间(台) / 抖室(港)/房间4k Room.2015.2160p.WEB-DL.x265.8bit.SDR.DTS-HD.MA.5.1-4k电影下载

房间4k Room.2015.2160p.WEB-DL.x265.8bit.SDR.DTS-HD.MA.5.1【4k SDR 14.50GB】
[Hao4k]房间4k Room.2015.2160p.WEB-DL.x265.8bit.SDR.DTS-HD.MA.5.1-NOGRP.torrent (18.77 KB, 售价: 3 个K币)
回复

使用道具 举报

全部回复6

bbgrnnji 发表于 2021-10-6 09:18:52

bbgrnnji 2

2021-10-6 09:18:52

以前就下了,还没看
回复 支持 反对

使用道具 举报

ll4027 发表于 2021-10-6 17:19:54

ll4027 3

2021-10-6 17:19:54

看了简介,不敢看了,总是觉得这种电影太压抑
回复 支持 反对

使用道具 举报

十四口 发表于 2021-10-6 20:10:06

十四口 4

2021-10-6 20:10:06

这部片子很好看.....结尾上升的画面与音乐搭配,令人入迷
回复 支持 反对

使用道具 举报

tracywang87 发表于 2021-10-7 00:29:03 Hao4K手机版

tracywang87 5

2021-10-7 00:29:03

评分很高啊
回复 支持 反对

使用道具 举报

cqcyganzj 发表于 2021-10-7 12:24:43

cqcyganzj 6

2021-10-7 12:24:43

评分真高啊!
回复 支持 反对

使用道具 举报

125458722 发表于 2021-10-8 08:04:42 Hao4K手机版

125458722 7

2021-10-8 08:04:42

先码住,回头再看
回复 支持 反对

使用道具 举报

   发表回复

您需要登录后才可以回帖 登录 | 立即注册

返回列表 本版积分规则

  • 发布新帖

  • 客服/帮助

  • 手机APP

  • 返回顶部