微博 微信 手机APP

Hao4K影音

电影频道
电影封面:
片  名: 史蒂夫·乔布斯4k
电影分类: 剧情 传记 
国  家: 美国 
年  代: 2015年
分 辨 率: 4K(3840x2160)
电影格式: MKV|REMUX 
画质标准: SDR 
音质编码: DTS-HD Master Audio 
电影声道: 5.1声道 
帧数/FPS: 23.976 帧
电影语言: 英文原版 
资源大小: 16.18 GB
导  演: 丹尼·博伊尔
豆瓣评分: 7.2 分
中文字幕: -
剧情简介: 影片将取材于沃特·艾萨克森撰写的乔布斯生前唯一授权的传记,本片将不同于传统传记电影,由三段故事组成。索尔金的剧本会聚焦乔布斯生前三件关键性产品的发布时刻——1984年第一台Mac电脑的问世、乔布斯离开苹果后创立的NeXT电脑公司和1998年苹果首次推出的iMac。
时代教主:乔布斯(港) / 史帝夫贾伯斯(台) / 乔布斯 / Jobs/史蒂夫·乔布斯4k Steve.Jobs.2015.2160p.WEB-DL.x265.8bit.SDR.DTS-HD.MA.5.1-4k电影信息
  1. Video
  2. ID : 1
  3. Format : HEVC
  4. Format/Info : High Efficiency Video Coding
  5. Format profile : Main@L5@High
  6. Codec ID : V_MPEGH/ISO/HEVC
  7. Duration : 2 h 2 min
  8. Bit rate : 14.6 Mb/s
  9. Width : 3 840 pixels
  10. Height : 2 160 pixels
  11. Display aspect ratio : 16:9
  12. Frame rate mode : Constant
  13. Frame rate : 23.976 (24000/1001) FPS
  14. Color space : YUV
  15. Chroma subsampling : 4:2:0
  16. Bit depth : 8 bits
  17. Bits/(Pixel*Frame) : 0.073
  18. Stream size : 12.5 GiB (77%)
  19. Default : Yes
  20. Forced : No
  21. Color range : Limited
  22. Color primaries : BT.709
  23. Transfer characteristics : BT.709
  24. Matrix coefficients : BT.709

  25. Audio #1
  26. ID : 2
  27. Format : DTS XLL
  28. Format/Info : Digital Theater Systems
  29. Commercial name : DTS-HD Master Audio
  30. Codec ID : A_DTS
  31. Duration : 2 h 2 min
  32. Bit rate mode : Variable
  33. Bit rate : 3 833 kb/s
  34. Channel(s) : 6 channels
  35. Channel layout : C L R Ls Rs LFE
  36. Sampling rate : 48.0 kHz
  37. Frame rate : 93.750 FPS (512 SPF)
  38. Bit depth : 24 bits
  39. Compression mode : Lossless
  40. Delay relative to video : 200 ms
  41. Stream size : 3.28 GiB (20%)
  42. Title : DTS-HD MA 5.1
  43. Language : English
  44. Default : Yes
  45. Forced : No

  46. Audio #2
  47. ID : 3
  48. Format : AAC LC
  49. Format/Info : Advanced Audio Codec Low Complexity
  50. Codec ID : A_AAC-2
  51. Duration : 2 h 2 min
  52. Bit rate : 445 kb/s
  53. Channel(s) : 6 channels
  54. Channel layout : C L R Ls Rs LFE
  55. Sampling rate : 48.0 kHz
  56. Frame rate : 46.875 FPS (1024 SPF)
  57. Compression mode : Lossy
  58. Stream size : 389 MiB (2%)
  59. Title : AAC 5.1
  60. Language : English
  61. Default : No
  62. Forced : No

  63. Text #1
  64. ID : 4
  65. Format : UTF-8
  66. Codec ID : S_TEXT/UTF8
  67. Codec ID/Info : UTF-8 Plain Text
  68. Duration : 2 h 1 min
  69. Bit rate : 109 b/s
  70. Count of elements : 2307
  71. Stream size : 97.6 KiB (0%)
  72. Title : SRT
  73. Language : English
  74. Default : Yes
  75. Forced : No

  76. Text #2
  77. ID : 5
  78. Format : PGS
  79. Muxing mode : zlib
  80. Codec ID : S_HDMV/PGS
  81. Codec ID/Info : Picture based subtitle format used on BDs/HD-DVDs
  82. Duration : 1 h 57 min
  83. Bit rate : 72.7 kb/s
  84. Count of elements : 5230
  85. Stream size : 61.3 MiB (0%)
  86. Title : SDH
  87. Language : English
  88. Default : No
  89. Forced : No

  90. Text #3
  91. ID : 6
  92. Format : PGS
  93. Muxing mode : zlib
  94. Codec ID : S_HDMV/PGS
  95. Codec ID/Info : Picture based subtitle format used on BDs/HD-DVDs
  96. Duration : 2 h 1 min
  97. Bit rate : 59.5 kb/s
  98. Count of elements : 4764
  99. Stream size : 51.8 MiB (0%)
  100. Language : French
  101. Default : No
  102. Forced : No

  103. Text #4
  104. ID : 7
  105. Format : PGS
  106. Muxing mode : zlib
  107. Codec ID : S_HDMV/PGS
  108. Codec ID/Info : Picture based subtitle format used on BDs/HD-DVDs
  109. Duration : 2 h 1 min
  110. Bit rate : 60.7 kb/s
  111. Count of elements : 4774
  112. Stream size : 52.9 MiB (0%)
  113. Language : Spanish
  114. Default : No
  115. Forced : No

  116. Menu
  117. 00:00:00.000 : Chapter 1
  118. 00:04:52.417 : Chapter 2
  119. 00:11:47.415 : Chapter 3
  120. 00:15:56.205 : Chapter 4
  121. 00:24:39.770 : Chapter 5
  122. 00:29:00.322 : Chapter 6
  123. 00:35:35.717 : Chapter 7
  124. 00:41:45.336 : Chapter 8
  125. 00:47:28.929 : Chapter 9
  126. 00:52:04.538 : Chapter 10
  127. 00:57:24.983 : Chapter 11
  128. 01:01:17.799 : Chapter 12
  129. 01:10:43.406 : Chapter 13
  130. 01:13:47.423 : Chapter 14
  131. 01:19:03.697 : Chapter 15
  132. 01:25:57.694 : Chapter 16
  133. 01:33:39.280 : Chapter 17
  134. 01:42:26.432 : Chapter 18
  135. 01:49:10.711 : Chapter 19
  136. 01:58:14.462 : Chapter 20
复制代码

时代教主:乔布斯(港) / 史帝夫贾伯斯(台) / 乔布斯 / Jobs/史蒂夫·乔布斯4k Steve.Jobs.2015.2160p.WEB-DL.x265.8bit.SDR.DTS-HD.MA.5.1-4k电影下载

史蒂夫·乔布斯4k Steve.Jobs.2015.2160p.WEB-DL.x265.8bit.SDR.DTS-HD.MA.5.1【4k SDR 16.18 GB】
[Hao4k]史蒂夫·乔布斯4k Steve.Jobs.2015.2160p.WEB-DL.x265.8bit.SDR.DTS-HD.MA.5.1-NOGRP.torrent (20.88 KB, 售价: 3 个K币)
回复

使用道具 举报

全部回复12

peter86k 发表于 2021-10-5 20:50:34

peter86k 2

2021-10-5 20:50:34

科技领域伟大的乔布斯 改变世界重要的人类
回复 支持 反对

使用道具 举报

叫我小刘就行了 发表于 2021-10-5 23:05:19

叫我小刘就行了 3

2021-10-5 23:05:19

乔布斯时期的苹果,每年的新品发布会都是惊喜,现在的苹果发布会,每年都是搞笑,为了发布而发布!

点评

苹果不是一个人的公司  发表于 前天 18:38
回复 支持 0 反对 1

使用道具 举报

renq0123 发表于 2021-10-6 09:58:06

renq0123 4

2021-10-6 09:58:06

致敬乔布斯  下载备存
回复 支持 反对

使用道具 举报

Liuxudong926 发表于 2021-10-6 11:17:59

Liuxudong926 5

2021-10-6 11:17:59

感谢楼主分享,辛苦了!
刚刚好这个电影没看过,刚刚好10月5日乔布斯逝世10周年!
回复 支持 反对

使用道具 举报

329748554 发表于 2021-10-6 13:50:15

329748554 6

2021-10-6 13:50:15

值得一看
回复 支持 反对

使用道具 举报

otherboy 发表于 2021-10-6 19:52:54

otherboy 7

2021-10-6 19:52:54

此片必下 谢谢分享
回复 支持 反对

使用道具 举报

nervbd 发表于 2021-10-6 23:12:23

nervbd 8

2021-10-6 23:12:23

更好却没有更新的苹果已经十年了哎,我也老了十岁
回复 支持 反对

使用道具 举报

老鼠响叮当燚燚 发表于 2021-10-7 10:11:28

老鼠响叮当燚燚 9

2021-10-7 10:11:28

老乔是一代传奇人物,值得一看
回复 支持 1 反对 0

使用道具 举报

bluenomad 发表于 2021-10-8 10:40:03

bluenomad 10

2021-10-8 10:40:03

字幕啥时候出?
回复 支持 反对

使用道具 举报

ljseone 发表于 2021-10-15 23:02:50

ljseone 11

2021-10-15 23:02:50

有字幕吗?
回复 支持 反对

使用道具 举报

czysky 发表于 2021-10-18 10:40:18

czysky 12

2021-10-18 10:40:18

演员和乔布斯本人相像的地方不多,下了后没看删掉了
回复 支持 反对

使用道具 举报

   发表回复

您需要登录后才可以回帖 登录 | 立即注册

返回列表 本版积分规则

  • 发布新帖

  • 客服/帮助

  • 手机APP

  • 返回顶部