微博 微信

Hao4K影音

电影频道
电影封面:
片  名: 福奇4k
电影分类: 纪录片 历史 
国  家: 美国 
年  代: 2021年
分 辨 率: 4K(3840x2160)
电影格式: MKV|REMUX 
画质标准: HDR 
音质编码: Dolby Digital Plus Audio 
电影声道: 其他 
帧数/FPS: 23.976 帧
电影语言: 英文原版 
资源大小: 12.07 GB
导  演: 约翰·霍夫曼 / 珍妮特·托比亚斯
豆瓣评分:
中文字幕: -
剧情简介:  国家地理打造的安东尼·福奇纪录片[福奇](Fauci,暂译)释出先导预告!该片由约翰·霍夫曼([合众为一])、珍妮特·托比亚斯([洞穴求生])共同执导。影片将追溯福奇的职业生涯,重点介绍他在艾滋病方面的工作,以及现在对抗新冠病毒的工作。该片采访对象包括小布什、比尔·盖茨等。
福奇4k Fauci.2021.HDR.2160p.WEB.h265-4k电影信息
  1. Video
  2. ID : 1
  3. Format : HEVC
  4. Format/Info : High Efficiency Video Coding
  5. Format profile : Main 10@L5@High
  6. HDR format : SMPTE ST 2086, HDR10 compatible
  7. Codec ID : V_MPEGH/ISO/HEVC
  8. Duration : 1 h 44 min
  9. Bit rate : 16.3 Mb/s
  10. Width : 3 840 pixels
  11. Height : 2 160 pixels
  12. Display aspect ratio : 16:9
  13. Frame rate mode : Constant
  14. Frame rate : 23.976 (24000/1001) FPS
  15. Color space : YUV
  16. Chroma subsampling : 4:2:0
  17. Bit depth : 10 bits
  18. Bits/(Pixel*Frame) : 0.082
  19. Stream size : 11.9 GiB (98%)
  20. Language : English
  21. Default : Yes
  22. Forced : No
  23. Color range : Limited
  24. Color primaries : BT.2020
  25. Transfer characteristics : PQ
  26. Matrix coefficients : BT.2020 non-constant
  27. Mastering display color primaries : Display P3
  28. Mastering display luminance : min: 0.0010 cd/m2, max: 1000 cd/m2

  29. Audio
  30. ID : 2
  31. Format : E-AC-3
  32. Format/Info : Enhanced AC-3
  33. Commercial name : Dolby Digital Plus
  34. Codec ID : A_EAC3
  35. Duration : 1 h 44 min
  36. Bit rate mode : Constant
  37. Bit rate : 256 kb/s
  38. Channel(s) : 6 channels
  39. Channel layout : L R C LFE Ls Rs
  40. Sampling rate : 48.0 kHz
  41. Frame rate : 31.250 FPS (1536 SPF)
  42. Compression mode : Lossy
  43. Stream size : 192 MiB (2%)
  44. Language : English
  45. Service kind : Complete Main
  46. Default : Yes
  47. Forced : No

  48. Text
  49. ID : 3
  50. Format : UTF-8
  51. Codec ID : S_TEXT/UTF8
  52. Codec ID/Info : UTF-8 Plain Text
  53. Duration : 1 h 41 min
  54. Bit rate : 111 b/s
  55. Count of elements : 1619
  56. Stream size : 83.0 KiB (0%)
  57. Title : English (SDH)
  58. Language : English
  59. Default : No
  60. Forced : No
复制代码

福奇4k Fauci.2021.HDR.2160p.WEB.h265-4k电影下载

福奇4k Fauci.2021.HDR.2160p.WEB.h265【4k HDR 12.07 GB】
[Hao4k]福奇4k Fauci.2021.HDR.2160p.WEB.h265-KOGi.torrent (15.75 KB, 售价: 3 个K币)
回复

使用道具 举报

全部回复8

bh2000 发表于 2021-10-7 09:52:25

bh2000 2

2021-10-7 09:52:25

长着一双阴森色的魔鬼眼
回复 支持 2 反对 0

使用道具 举报

用户名1 发表于 2021-10-7 11:52:48 Hao4K手机版

用户名1 3

2021-10-7 11:52:48

刚开始还以为他被人冤枉,没想到也是一丘之貉
回复 支持 反对

使用道具 举报

犹豫不决 发表于 2021-10-7 12:22:08

犹豫不决 4

2021-10-7 12:22:08

出卖灵魂的
回复 支持 反对

使用道具 举报

hhhz 发表于 2021-10-7 19:00:04

hhhz 5

2021-10-7 19:00:04

双面人!
回复 支持 反对

使用道具 举报

cqsun6210 发表于 2021-10-8 00:34:00

cqsun6210 6

2021-10-8 00:34:00

沼泽生物
回复 支持 反对

使用道具 举报

xlwuren 发表于 2021-10-8 00:46:11

xlwuren 7

2021-10-8 00:46:11

从技术官僚到政客
回复 支持 反对

使用道具 举报

aabbccddeeff 发表于 2021-10-8 08:49:23

aabbccddeeff 8

2021-10-8 08:49:23

来看看抗疫美国队长的纪录片。谢谢分享!
回复 支持 反对

使用道具 举报

阿尔卑斯的雪 发表于 2021-10-9 20:35:26

阿尔卑斯的雪 9

2021-10-9 20:35:26

双面人 不好评价
回复 支持 反对

使用道具 举报

   发表回复

您需要登录后才可以回帖 登录 | 立即注册

返回列表 本版积分规则

  • 在线客服

  • 返回顶部