微博 微信

Hao4K影音

电影频道
电影封面:
片  名: 蓝色海湾4k
电影分类: 剧情 
国  家: 美国 
年  代: 2021年
分 辨 率: 4K(3840x2160)
电影格式: MKV|REMUX 
画质标准: HDR SDR 
音质编码: Dolby Digital Plus Audio 
电影声道: 5.1声道 
帧数/FPS: 23.976 帧
电影语言: 英文原版 
资源大小: 20.75 GB
导  演: 全知泰
豆瓣评分: 7.7 分
中文字幕: -
剧情简介: 故事讲述了一个典型美国家庭为未来奋斗的感人而普通的故事。
  韩裔美国人Antonio LeBlanc(全知泰 Justin Chon 饰演)幼年时被收养,并在路易斯安那州某个河口小镇长大成人。如今,他与心爱的Katy(艾丽西亚·维坎德 Alicia Vikander 饰演)成家,共同抚养她与前夫生下的 女儿Jessie。当他努力为家人提供最好的生活时,却得知将被这个自己称之为“家”的国家驱逐。挥之不去的过去将他紧紧束缚。
蓝色港湾/蓝色海湾4k Blue.Bayou.2021.2160p.WEB-DL.x265.10bit.HDR.DDP5.1电影信息
  1. Video
  2. ID : 1
  3. Format : HEVC
  4. Format/Info : High Efficiency Video Coding
  5. Format profile : Main 10@L5@High
  6. HDR format : SMPTE ST 2086, HDR10 compatible
  7. Codec ID : V_MPEGH/ISO/HEVC
  8. Duration : 1 h 57 min
  9. Bit rate : 24.6 Mb/s
  10. Width : 3 416 pixels
  11. Height : 2 070 pixels
  12. Display aspect ratio : 5:3
  13. Frame rate mode : Constant
  14. Frame rate : 23.976 FPS
  15. Color space : YUV
  16. Chroma subsampling : 4:2:0 (Type 2)
  17. Bit depth : 10 bits
  18. Bits/(Pixel*Frame) : 0.145
  19. Stream size : 20.2 GiB (97%)
  20. Default : Yes
  21. Forced : No
  22. Color range : Limited
  23. Color primaries : BT.2020
  24. Transfer characteristics : PQ
  25. Matrix coefficients : BT.2020 non-constant
  26. Mastering display color primaries : Display P3
  27. Mastering display luminance : min: 0.0050 cd/m2, max: 1000 cd/m2
  28. Maximum Content Light Level : 933 cd/m2
  29. Maximum Frame-Average Light Level : 111 cd/m2

  30. Audio
  31. ID : 2
  32. Format : E-AC-3
  33. Format/Info : Enhanced AC-3
  34. Commercial name : Dolby Digital Plus
  35. Codec ID : A_EAC3
  36. Duration : 1 h 57 min
  37. Bit rate mode : Constant
  38. Bit rate : 640 kb/s
  39. Channel(s) : 6 channels
  40. Channel layout : L R C LFE Ls Rs
  41. Sampling rate : 48.0 kHz
  42. Frame rate : 31.250 FPS (1536 SPF)
  43. Compression mode : Lossy
  44. Stream size : 538 MiB (3%)
  45. Language : English
  46. Service kind : Complete Main
  47. Default : Yes
  48. Forced : No

  49. Text
  50. ID : 3
  51. Format : UTF-8
  52. Codec ID : S_TEXT/UTF8
  53. Codec ID/Info : UTF-8 Plain Text
  54. Duration : 1 h 49 min
  55. Bit rate : 52 b/s
  56. Count of elements : 1434
  57. Stream size : 42.1 KiB (0%)
  58. Language : English
  59. Default : Yes
  60. Forced : No
复制代码

蓝色港湾/蓝色海湾4k Blue.Bayou.2021.2160p.WEB-DL.x265.10bit.HDR.DDP5.1电影下载

蓝色海湾4k Blue.Bayou.2021.2160p.WEB-DL.x265.10bit.HDR.DDP5.1【4k  HDR 20.75GB】
[Hao4k]蓝色海湾4k Blue.Bayou.2021.2160p.WEB-DL.x265.10bit.HDR.DDP5.1-NOGRP.torrent (26.57 KB, 售价: 2 个K币)
回复

使用道具 举报

全部回复1

阿尔卑斯的雪 发表于 5 天前

阿尔卑斯的雪 2

5 天前

可以看看 学习楼主分享
回复 支持 反对

使用道具 举报

   发表回复

您需要登录后才可以回帖 登录 | 立即注册

返回列表 本版积分规则

  • 在线客服

  • 返回顶部