微博 微信

Hao4K影音

电影频道
电影封面:
片  名: 人母诅咒4k
电影分类: 恐怖 
国  家: 美国 
年  代: 2021年
分 辨 率: 4K(3840x2160)
电影格式: MKV|REMUX 
画质标准: HDR SDR 
音质编码: Dolby Digital Plus Audio 
电影声道: 5.1声道 
帧数/FPS: 23.976 帧
电影语言: 中文简体 中文繁体 英文原版 
资源大小: 8.93 GB
导  演: Ryan Zaragoza
豆瓣评分:
中文字幕: -
剧情简介: A Mexican-American couple expecting their first child relocate to a migrant farming community in 1970\'s California. When the wife begins to experience strange symptoms and terrifying visions, she tries to determine if it\'s related to a legendary curse or something more nefarious.
孕母/人母诅咒4k Madres.2021.2160p.AMZN.WEB-DL.x265.10bit.HDR10Plus.DDP5.1-4k电影信息
  1. Video
  2. ID : 1
  3. Format : HEVC
  4. Format/Info : High Efficiency Video Coding
  5. Format profile : Main 10@L5@Main
  6. HDR format : SMPTE ST 2094 App 4, Version 1, HDR10+ Profile B compatible
  7. Codec ID : V_MPEGH/ISO/HEVC
  8. Duration : 1 h 23 min
  9. Bit rate : 14.6 Mb/s
  10. Width : 3 840 pixels
  11. Height : 1 600 pixels
  12. Display aspect ratio : 2.40:1
  13. Frame rate mode : Constant
  14. Frame rate : 23.976 (24000/1001) FPS
  15. Color space : YUV
  16. Chroma subsampling : 4:2:0
  17. Bit depth : 10 bits
  18. Bits/(Pixel*Frame) : 0.099
  19. Stream size : 8.55 GiB (96%)
  20. Default : Yes
  21. Forced : No
  22. Color range : Limited
  23. Color primaries : BT.2020
  24. Transfer characteristics : PQ
  25. Matrix coefficients : BT.2020 non-constant
  26. Mastering display color primaries : Display P3
  27. Mastering display luminance : min: 0.0001 cd/m2, max: 1000 cd/m2
  28. Maximum Content Light Level : 382 cd/m2
  29. Maximum Frame-Average Light Level : 52 cd/m2

  30. Audio
  31. ID : 2
  32. Format : E-AC-3
  33. Format/Info : Enhanced AC-3
  34. Commercial name : Dolby Digital Plus
  35. Codec ID : A_EAC3
  36. Duration : 1 h 23 min
  37. Bit rate mode : Constant
  38. Bit rate : 640 kb/s
  39. Channel(s) : 6 channels
  40. Channel layout : L R C LFE Ls Rs
  41. Sampling rate : 48.0 kHz
  42. Frame rate : 31.250 FPS (1536 SPF)
  43. Compression mode : Lossy
  44. Stream size : 383 MiB (4%)
  45. Title : English
  46. Language : English
  47. Service kind : Complete Main
  48. Default : No
  49. Forced : No

  50. Text #1
  51. ID : 3
  52. Format : UTF-8
  53. Codec ID : S_TEXT/UTF8
  54. Codec ID/Info : UTF-8 Plain Text
  55. Duration : 1 h 23 min
  56. Bit rate : 67 b/s
  57. Count of elements : 743
  58. Stream size : 41.1 KiB (0%)
  59. Title : Arabic
  60. Language : Arabic
  61. Default : No
  62. Forced : No

  63. Text #2
  64. ID : 4
  65. Format : UTF-8
  66. Codec ID : S_TEXT/UTF8
  67. Codec ID/Info : UTF-8 Plain Text
  68. Duration : 1 h 23 min
  69. Bit rate : 35 b/s
  70. Count of elements : 741
  71. Stream size : 21.5 KiB (0%)
  72. Title : Chinese (Simplified)
  73. Language : Chinese
  74. Default : No
  75. Forced : No

  76. Text #3
  77. ID : 5
  78. Format : UTF-8
  79. Codec ID : S_TEXT/UTF8
  80. Codec ID/Info : UTF-8 Plain Text
  81. Duration : 1 h 23 min
  82. Bit rate : 30 b/s
  83. Count of elements : 741
  84. Stream size : 18.8 KiB (0%)
  85. Title : Chinese (Traditional)
  86. Language : Chinese
  87. Default : No
  88. Forced : No

  89. Text #4
  90. ID : 6
  91. Format : UTF-8
  92. Codec ID : S_TEXT/UTF8
  93. Codec ID/Info : UTF-8 Plain Text
  94. Duration : 1 h 23 min
  95. Bit rate : 37 b/s
  96. Count of elements : 736
  97. Stream size : 23.1 KiB (0%)
  98. Title : Czech
  99. Language : Czech
  100. Default : No
  101. Forced : No

  102. Text #5
  103. ID : 7
  104. Format : UTF-8
  105. Codec ID : S_TEXT/UTF8
  106. Codec ID/Info : UTF-8 Plain Text
  107. Duration : 1 h 23 min
  108. Bit rate : 37 b/s
  109. Count of elements : 731
  110. Stream size : 22.5 KiB (0%)
  111. Title : Danish
  112. Language : Danish
  113. Default : No
  114. Forced : No

  115. Text #6
  116. ID : 8
  117. Format : UTF-8
  118. Codec ID : S_TEXT/UTF8
  119. Codec ID/Info : UTF-8 Plain Text
  120. Duration : 1 h 23 min
  121. Bit rate : 34 b/s
  122. Count of elements : 724
  123. Stream size : 21.1 KiB (0%)
  124. Title : Dutch
  125. Language : Dutch
  126. Default : No
  127. Forced : No

  128. Text #7
  129. ID : 9
  130. Format : UTF-8
  131. Codec ID : S_TEXT/UTF8
  132. Codec ID/Info : UTF-8 Plain Text
  133. Duration : 1 h 11 min
  134. Bit rate : 3 b/s
  135. Count of elements : 94
  136. Stream size : 1.86 KiB (0%)
  137. Title : English [Forced]
  138. Language : English
  139. Default : No
  140. Forced : Yes

  141. Text #8
  142. ID : 10
  143. Format : UTF-8
  144. Codec ID : S_TEXT/UTF8
  145. Codec ID/Info : UTF-8 Plain Text
  146. Duration : 1 h 23 min
  147. Bit rate : 45 b/s
  148. Count of elements : 1154
  149. Stream size : 27.6 KiB (0%)
  150. Title : English [SDH]
  151. Language : English
  152. Default : No
  153. Forced : No

  154. Text #9
  155. ID : 11
  156. Format : UTF-8
  157. Codec ID : S_TEXT/UTF8
  158. Codec ID/Info : UTF-8 Plain Text
  159. Duration : 1 h 21 min
  160. Bit rate : 37 b/s
  161. Count of elements : 861
  162. Stream size : 22.1 KiB (0%)
  163. Title : English
  164. Language : English
  165. Default : No
  166. Forced : No

  167. Text #10
  168. ID : 12
  169. Format : UTF-8
  170. Codec ID : S_TEXT/UTF8
  171. Codec ID/Info : UTF-8 Plain Text
  172. Duration : 1 h 23 min
  173. Bit rate : 39 b/s
  174. Count of elements : 716
  175. Stream size : 24.0 KiB (0%)
  176. Title : Filipino
  177. Language : fil
  178. Default : No
  179. Forced : No

  180. Text #11
  181. ID : 13
  182. Format : UTF-8
  183. Codec ID : S_TEXT/UTF8
  184. Codec ID/Info : UTF-8 Plain Text
  185. Duration : 1 h 23 min
  186. Bit rate : 34 b/s
  187. Count of elements : 731
  188. Stream size : 20.7 KiB (0%)
  189. Title : Finnish
  190. Language : Finnish
  191. Default : No
  192. Forced : No

  193. Text #12
  194. ID : 14
  195. Format : UTF-8
  196. Codec ID : S_TEXT/UTF8
  197. Codec ID/Info : UTF-8 Plain Text
  198. Duration : 1 h 23 min
  199. Bit rate : 35 b/s
  200. Count of elements : 734
  201. Stream size : 21.4 KiB (0%)
  202. Title : French
  203. Language : French
  204. Default : No
  205. Forced : No

  206. Text #13
  207. ID : 15
  208. Format : UTF-8
  209. Codec ID : S_TEXT/UTF8
  210. Codec ID/Info : UTF-8 Plain Text
  211. Duration : 1 h 23 min
  212. Bit rate : 37 b/s
  213. Count of elements : 724
  214. Stream size : 22.8 KiB (0%)
  215. Title : German
  216. Language : German
  217. Default : No
  218. Forced : No

  219. Text #14
  220. ID : 16
  221. Format : UTF-8
  222. Codec ID : S_TEXT/UTF8
  223. Codec ID/Info : UTF-8 Plain Text
  224. Duration : 1 h 23 min
  225. Bit rate : 65 b/s
  226. Count of elements : 737
  227. Stream size : 39.8 KiB (0%)
  228. Title : Hebrew
  229. Language : Hebrew
  230. Default : No
  231. Forced : No

  232. Text #15
  233. ID : 17
  234. Format : UTF-8
  235. Codec ID : S_TEXT/UTF8
  236. Codec ID/Info : UTF-8 Plain Text
  237. Duration : 1 h 23 min
  238. Bit rate : 90 b/s
  239. Count of elements : 741
  240. Stream size : 54.9 KiB (0%)
  241. Title : Hindi
  242. Language : Hindi
  243. Default : No
  244. Forced : No

  245. Text #16
  246. ID : 18
  247. Format : UTF-8
  248. Codec ID : S_TEXT/UTF8
  249. Codec ID/Info : UTF-8 Plain Text
  250. Duration : 1 h 23 min
  251. Bit rate : 37 b/s
  252. Count of elements : 735
  253. Stream size : 23.1 KiB (0%)
  254. Title : Hungarian
  255. Language : Hungarian
  256. Default : No
  257. Forced : No

  258. Text #17
  259. ID : 19
  260. Format : UTF-8
  261. Codec ID : S_TEXT/UTF8
  262. Codec ID/Info : UTF-8 Plain Text
  263. Duration : 1 h 23 min
  264. Bit rate : 35 b/s
  265. Count of elements : 735
  266. Stream size : 21.5 KiB (0%)
  267. Title : Indonesian
  268. Language : Indonesian
  269. Default : No
  270. Forced : No

  271. Text #18
  272. ID : 20
  273. Format : UTF-8
  274. Codec ID : S_TEXT/UTF8
  275. Codec ID/Info : UTF-8 Plain Text
  276. Duration : 1 h 23 min
  277. Bit rate : 36 b/s
  278. Count of elements : 737
  279. Stream size : 22.1 KiB (0%)
  280. Title : Italian
  281. Language : Italian
  282. Default : No
  283. Forced : No

  284. Text #19
  285. ID : 21
  286. Format : UTF-8
  287. Codec ID : S_TEXT/UTF8
  288. Codec ID/Info : UTF-8 Plain Text
  289. Duration : 1 h 23 min
  290. Bit rate : 31 b/s
  291. Count of elements : 722
  292. Stream size : 19.0 KiB (0%)
  293. Title : Japanese
  294. Language : Japanese
  295. Default : No
  296. Forced : No

  297. Text #20
  298. ID : 22
  299. Format : UTF-8
  300. Codec ID : S_TEXT/UTF8
  301. Codec ID/Info : UTF-8 Plain Text
  302. Duration : 1 h 23 min
  303. Bit rate : 41 b/s
  304. Count of elements : 739
  305. Stream size : 25.1 KiB (0%)
  306. Title : Korean
  307. Language : Korean
  308. Default : No
  309. Forced : No

  310. Text #21
  311. ID : 23
  312. Format : UTF-8
  313. Codec ID : S_TEXT/UTF8
  314. Codec ID/Info : UTF-8 Plain Text
  315. Duration : 1 h 23 min
  316. Bit rate : 36 b/s
  317. Count of elements : 733
  318. Stream size : 22.4 KiB (0%)
  319. Title : Malay
  320. Language : Malay
  321. Default : No
  322. Forced : No

  323. Text #22
  324. ID : 24
  325. Format : UTF-8
  326. Codec ID : S_TEXT/UTF8
  327. Codec ID/Info : UTF-8 Plain Text
  328. Duration : 1 h 23 min
  329. Bit rate : 35 b/s
  330. Count of elements : 733
  331. Stream size : 21.8 KiB (0%)
  332. Title : Norwegian (Bokmål)
  333. Language : Norwegian Bokmal
  334. Default : No
  335. Forced : No

  336. Text #23
  337. ID : 25
  338. Format : UTF-8
  339. Codec ID : S_TEXT/UTF8
  340. Codec ID/Info : UTF-8 Plain Text
  341. Duration : 1 h 23 min
  342. Bit rate : 30 b/s
  343. Count of elements : 726
  344. Stream size : 18.6 KiB (0%)
  345. Title : Polish
  346. Language : Polish
  347. Default : No
  348. Forced : No

  349. Text #24
  350. ID : 26
  351. Format : UTF-8
  352. Codec ID : S_TEXT/UTF8
  353. Codec ID/Info : UTF-8 Plain Text
  354. Duration : 1 h 23 min
  355. Bit rate : 35 b/s
  356. Count of elements : 736
  357. Stream size : 21.3 KiB (0%)
  358. Title : Brazilian Portuguese
  359. Language : Portuguese
  360. Default : No
  361. Forced : No

  362. Text #25
  363. ID : 27
  364. Format : UTF-8
  365. Codec ID : S_TEXT/UTF8
  366. Codec ID/Info : UTF-8 Plain Text
  367. Duration : 1 h 23 min
  368. Bit rate : 35 b/s
  369. Count of elements : 733
  370. Stream size : 21.6 KiB (0%)
  371. Title : Portuguese
  372. Language : Portuguese
  373. Default : No
  374. Forced : No

  375. Text #26
  376. ID : 28
  377. Format : UTF-8
  378. Codec ID : S_TEXT/UTF8
  379. Codec ID/Info : UTF-8 Plain Text
  380. Duration : 1 h 23 min
  381. Bit rate : 38 b/s
  382. Count of elements : 736
  383. Stream size : 23.4 KiB (0%)
  384. Title : Romanian
  385. Language : Romanian
  386. Default : No
  387. Forced : No

  388. Text #27
  389. ID : 29
  390. Format : UTF-8
  391. Codec ID : S_TEXT/UTF8
  392. Codec ID/Info : UTF-8 Plain Text
  393. Duration : 1 h 23 min
  394. Bit rate : 59 b/s
  395. Count of elements : 739
  396. Stream size : 36.3 KiB (0%)
  397. Title : Russian
  398. Language : Russian
  399. Default : No
  400. Forced : No

  401. Text #28
  402. ID : 30
  403. Format : UTF-8
  404. Codec ID : S_TEXT/UTF8
  405. Codec ID/Info : UTF-8 Plain Text
  406. Duration : 1 h 23 min
  407. Bit rate : 33 b/s
  408. Count of elements : 658
  409. Stream size : 20.7 KiB (0%)
  410. Title : Spanish
  411. Language : Spanish
  412. Default : No
  413. Forced : No

  414. Text #29
  415. ID : 31
  416. Format : UTF-8
  417. Codec ID : S_TEXT/UTF8
  418. Codec ID/Info : UTF-8 Plain Text
  419. Duration : 1 h 23 min
  420. Bit rate : 32 b/s
  421. Count of elements : 660
  422. Stream size : 19.9 KiB (0%)
  423. Title : Castilian
  424. Language : Spanish
  425. Default : No
  426. Forced : No

  427. Text #30
  428. ID : 32
  429. Format : UTF-8
  430. Codec ID : S_TEXT/UTF8
  431. Codec ID/Info : UTF-8 Plain Text
  432. Duration : 1 h 23 min
  433. Bit rate : 34 b/s
  434. Count of elements : 731
  435. Stream size : 20.8 KiB (0%)
  436. Title : Swedish
  437. Language : Swedish
  438. Default : No
  439. Forced : No

  440. Text #31
  441. ID : 33
  442. Format : UTF-8
  443. Codec ID : S_TEXT/UTF8
  444. Codec ID/Info : UTF-8 Plain Text
  445. Duration : 1 h 23 min
  446. Bit rate : 98 b/s
  447. Count of elements : 741
  448. Stream size : 60.1 KiB (0%)
  449. Title : Tamil
  450. Language : Tamil
  451. Default : No
  452. Forced : No

  453. Text #32
  454. ID : 34
  455. Format : UTF-8
  456. Codec ID : S_TEXT/UTF8
  457. Codec ID/Info : UTF-8 Plain Text
  458. Duration : 1 h 23 min
  459. Bit rate : 89 b/s
  460. Count of elements : 741
  461. Stream size : 54.5 KiB (0%)
  462. Title : Telugu
  463. Language : Telugu
  464. Default : No
  465. Forced : No

  466. Text #33
  467. ID : 35
  468. Format : UTF-8
  469. Codec ID : S_TEXT/UTF8
  470. Codec ID/Info : UTF-8 Plain Text
  471. Duration : 1 h 23 min
  472. Bit rate : 92 b/s
  473. Count of elements : 741
  474. Stream size : 56.5 KiB (0%)
  475. Title : Thai
  476. Language : Thai
  477. Default : No
  478. Forced : No

  479. Text #34
  480. ID : 36
  481. Format : UTF-8
  482. Codec ID : S_TEXT/UTF8
  483. Codec ID/Info : UTF-8 Plain Text
  484. Duration : 1 h 23 min
  485. Bit rate : 36 b/s
  486. Count of elements : 730
  487. Stream size : 22.5 KiB (0%)
  488. Title : Turkish
  489. Language : Turkish
  490. Default : No
  491. Forced : No

  492. Menu
  493. 00:00:00.000 : Amazon Studios
  494. 00:00:22.000 : Scene 2
  495. 00:00:39.000 : Scene 3
  496. 00:02:24.000 : Scene 4
  497. 00:09:13.000 : Scene 5
  498. 00:11:22.000 : Scene 6
  499. 00:14:28.000 : Scene 7
  500. 00:16:44.000 : Scene 8
  501. 00:20:50.000 : Scene 9
  502. 00:21:37.000 : Scene 10
  503. 00:25:05.000 : Scene 11
  504. 00:29:15.000 : Scene 12
  505. 00:32:55.000 : Scene 13
  506. 00:33:45.000 : Scene 14
  507. 00:36:20.000 : Scene 15
  508. 00:38:40.000 : Scene 16
  509. 00:42:21.000 : Scene 17
  510. 00:44:13.000 : Scene 18
  511. 00:49:58.000 : Scene 19
  512. 00:50:44.000 : Scene 20
  513. 00:51:53.000 : Scene 21
  514. 00:59:35.000 : Scene 22
  515. 01:01:05.000 : Scene 23
  516. 01:05:43.000 : Scene 24
  517. 01:08:55.000 : Scene 25
  518. 01:14:34.000 : Scene 26
  519. 01:19:18.000 : Scene 27
  520. 01:20:35.000 : Scene 28
  521. 01:21:33.000 : Acknowledgement
  522. 01:22:37.000 : End Credits
复制代码

孕母/人母诅咒4k Madres.2021.2160p.AMZN.WEB-DL.x265.10bit.HDR10Plus.DDP5.1-4k电影下载

人母诅咒4k Madres.2021.2160p.AMZN.WEB-DL.x265.10bit.HDR10Plus.DDP5.1简繁中字【4k HDR 8.93 GB】
[Hao4k]人母诅咒4k Madres.2021.2160p.AMZN.WEB-DL.x265.10bit.HDR10Plus.DDP5.1-CM.torrent (22.95 KB, 售价: 2 个K币)
回复

使用道具 举报

全部回复1

bbgrnnji 发表于 2021-10-8 17:43:14

bbgrnnji 2

2021-10-8 17:43:14

基本上是恐怖片包场
回复 支持 反对

使用道具 举报

   发表回复

您需要登录后才可以回帖 登录 | 立即注册

返回列表 本版积分规则

  • 在线客服

  • 返回顶部