微博 微信 手机APP

Hao4K影音

电影频道
电影封面:
片  名: 养老庄园4k
电影分类: 恐怖 
国  家: 美国 
年  代: 2021年
分 辨 率: 4K(3840x2160)
电影格式: MKV|REMUX 
画质标准: HDR SDR 
音质编码: Dolby Digital Plus Audio 
电影声道: 5.1声道 
帧数/FPS: 23.976 帧
电影语言: 中文简体 中文繁体 英文原版 
资源大小: 8.75 GB
导  演: 阿克塞尔·卡罗琳
豆瓣评分:
中文字幕: -
剧情简介: After suffering a stroke, Judith Albright moves into a historic nursing home, where she begins to suspect something supernatural is preying on the residents. In order to escape, she\'ll need to convince everyone around her that she doesn\'t actually belong there after all.
养老庄园4k The.Manor.2021.2160p.AMZN.WEB-DL.x265.10bit.HDR10Plus.DDP5.1电影信息
  1. Video
  2. ID : 1
  3. Format : HEVC
  4. Format/Info : High Efficiency Video Coding
  5. Format profile : Main 10@L5@Main
  6. HDR format : SMPTE ST 2094 App 4, Version 1, HDR10+ Profile B compatible
  7. Codec ID : V_MPEGH/ISO/HEVC
  8. Duration : 1 h 21 min
  9. Bit rate : 14.8 Mb/s
  10. Width : 3 840 pixels
  11. Height : 1 600 pixels
  12. Display aspect ratio : 2.40:1
  13. Frame rate mode : Constant
  14. Frame rate : 23.976 (24000/1001) FPS
  15. Color space : YUV
  16. Chroma subsampling : 4:2:0
  17. Bit depth : 10 bits
  18. Bits/(Pixel*Frame) : 0.100
  19. Stream size : 8.38 GiB (96%)
  20. Default : Yes
  21. Forced : No
  22. Color range : Limited
  23. Color primaries : BT.2020
  24. Transfer characteristics : PQ
  25. Matrix coefficients : BT.2020 non-constant
  26. Mastering display color primaries : Display P3
  27. Mastering display luminance : min: 0.0001 cd/m2, max: 1000 cd/m2
  28. Maximum Content Light Level : 742 cd/m2
  29. Maximum Frame-Average Light Level : 166 cd/m2

  30. Audio
  31. ID : 2
  32. Format : E-AC-3
  33. Format/Info : Enhanced AC-3
  34. Commercial name : Dolby Digital Plus
  35. Codec ID : A_EAC3
  36. Duration : 1 h 21 min
  37. Bit rate mode : Constant
  38. Bit rate : 640 kb/s
  39. Channel(s) : 6 channels
  40. Channel layout : L R C LFE Ls Rs
  41. Sampling rate : 48.0 kHz
  42. Frame rate : 31.250 FPS (1536 SPF)
  43. Compression mode : Lossy
  44. Stream size : 372 MiB (4%)
  45. Title : English
  46. Language : English
  47. Service kind : Complete Main
  48. Default : No
  49. Forced : No

  50. Text #1
  51. ID : 3
  52. Format : UTF-8
  53. Codec ID : S_TEXT/UTF8
  54. Codec ID/Info : UTF-8 Plain Text
  55. Duration : 1 h 20 min
  56. Bit rate : 85 b/s
  57. Count of elements : 953
  58. Stream size : 50.2 KiB (0%)
  59. Title : Arabic
  60. Language : Arabic
  61. Default : No
  62. Forced : No

  63. Text #2
  64. ID : 4
  65. Format : UTF-8
  66. Codec ID : S_TEXT/UTF8
  67. Codec ID/Info : UTF-8 Plain Text
  68. Duration : 1 h 20 min
  69. Bit rate : 48 b/s
  70. Count of elements : 953
  71. Stream size : 28.5 KiB (0%)
  72. Title : Chinese (Simplified)
  73. Language : Chinese
  74. Default : No
  75. Forced : No

  76. Text #3
  77. ID : 5
  78. Format : UTF-8
  79. Codec ID : S_TEXT/UTF8
  80. Codec ID/Info : UTF-8 Plain Text
  81. Duration : 1 h 20 min
  82. Bit rate : 44 b/s
  83. Count of elements : 953
  84. Stream size : 26.5 KiB (0%)
  85. Title : Chinese (Traditional)
  86. Language : Chinese
  87. Default : No
  88. Forced : No

  89. Text #4
  90. ID : 6
  91. Format : UTF-8
  92. Codec ID : S_TEXT/UTF8
  93. Codec ID/Info : UTF-8 Plain Text
  94. Duration : 1 h 20 min
  95. Bit rate : 45 b/s
  96. Count of elements : 951
  97. Stream size : 26.9 KiB (0%)
  98. Title : Czech
  99. Language : Czech
  100. Default : No
  101. Forced : No

  102. Text #5
  103. ID : 7
  104. Format : UTF-8
  105. Codec ID : S_TEXT/UTF8
  106. Codec ID/Info : UTF-8 Plain Text
  107. Duration : 1 h 20 min
  108. Bit rate : 44 b/s
  109. Count of elements : 949
  110. Stream size : 26.2 KiB (0%)
  111. Title : Danish
  112. Language : Danish
  113. Default : No
  114. Forced : No

  115. Text #6
  116. ID : 8
  117. Format : UTF-8
  118. Codec ID : S_TEXT/UTF8
  119. Codec ID/Info : UTF-8 Plain Text
  120. Duration : 1 h 20 min
  121. Bit rate : 44 b/s
  122. Count of elements : 949
  123. Stream size : 26.3 KiB (0%)
  124. Title : Dutch
  125. Language : Dutch
  126. Default : No
  127. Forced : No

  128. Text #7
  129. ID : 9
  130. Format : UTF-8
  131. Codec ID : S_TEXT/UTF8
  132. Codec ID/Info : UTF-8 Plain Text
  133. Duration : 1 h 20 min
  134. Bit rate : 65 b/s
  135. Count of elements : 1444
  136. Stream size : 38.4 KiB (0%)
  137. Title : English [SDH]
  138. Language : English
  139. Default : No
  140. Forced : No

  141. Text #8
  142. ID : 10
  143. Format : UTF-8
  144. Codec ID : S_TEXT/UTF8
  145. Codec ID/Info : UTF-8 Plain Text
  146. Duration : 1 h 18 min
  147. Bit rate : 55 b/s
  148. Count of elements : 1156
  149. Stream size : 31.9 KiB (0%)
  150. Title : English
  151. Language : English
  152. Default : No
  153. Forced : No

  154. Text #9
  155. ID : 11
  156. Format : UTF-8
  157. Codec ID : S_TEXT/UTF8
  158. Codec ID/Info : UTF-8 Plain Text
  159. Duration : 1 h 20 min
  160. Bit rate : 46 b/s
  161. Count of elements : 947
  162. Stream size : 27.6 KiB (0%)
  163. Title : Filipino
  164. Language : fil
  165. Default : No
  166. Forced : No

  167. Text #10
  168. ID : 12
  169. Format : UTF-8
  170. Codec ID : S_TEXT/UTF8
  171. Codec ID/Info : UTF-8 Plain Text
  172. Duration : 1 h 20 min
  173. Bit rate : 44 b/s
  174. Count of elements : 949
  175. Stream size : 26.2 KiB (0%)
  176. Title : Finnish
  177. Language : Finnish
  178. Default : No
  179. Forced : No

  180. Text #11
  181. ID : 13
  182. Format : UTF-8
  183. Codec ID : S_TEXT/UTF8
  184. Codec ID/Info : UTF-8 Plain Text
  185. Duration : 1 h 20 min
  186. Bit rate : 45 b/s
  187. Count of elements : 942
  188. Stream size : 26.5 KiB (0%)
  189. Title : French
  190. Language : French
  191. Default : No
  192. Forced : No
复制代码

养老庄园4k The.Manor.2021.2160p.AMZN.WEB-DL.x265.10bit.HDR10Plus.DDP5.1电影下载
养老庄园4k The.Manor.2021.2160p.AMZN.WEB-DL.x265.10bit.HDR10Plus.DDP5.1简繁中字【4k HDR 8.75 GB】
[Hao4k]养老庄园4k The.Manor.2021.2160p.AMZN.WEB-DL.x265.10bit.HDR10Plus.DDP5.1-CM.torrent (22.5 KB, 售价: 2 个K币)
回复

使用道具 举报

全部回复2

yzguan 发表于 2021-10-10 11:55:52

yzguan 2

2021-10-10 11:55:52

谢谢楼主分享电影
回复 支持 反对

使用道具 举报

ggang 发表于 2021-10-13 10:53:32

ggang 3

2021-10-13 10:53:32

谢谢楼主的 分享
回复 支持 反对

使用道具 举报

   发表回复

您需要登录后才可以回帖 登录 | 立即注册

返回列表 本版积分规则

  • 发布新帖

  • 客服/帮助

  • 手机APP

  • 返回顶部