微博 微信

Hao4K影音

电影频道
电影封面:
片  名: 老亨利4k
电影分类: 动作 犯罪 剧情 西部 
国  家: 美国 
年  代: 2021年
分 辨 率: 4K(3840x2160)
电影格式: MKV|REMUX 
画质标准: HDR SDR 
音质编码: Dolby Digital Audio 
电影声道: 5.1声道 
帧数/FPS: 23.976 帧
电影语言: 英文原版 
资源大小: 16.98 GB
导  演: 帕塔诗·蓬西里
豆瓣评分:
中文字幕: /thread-62609-1-1.html
剧情简介: 一个农民带着一包现金收留一名受伤男子的故事。当一队人来要钱时,他必须决定信任谁。在防御围攻时,他展现了一个持枪的天才,他的真实身份受到了质疑。
老亨利4k Old.Henry.2021.2160p.WEB-DL.x265.10bit.HDR.DDP5.1-4k电影信息
  1. Video
  2. ID : 1
  3. Format : HEVC
  4. Format/Info : High Efficiency Video Coding
  5. Format profile : Main 10@L5@High
  6. HDR format : SMPTE ST 2086, HDR10 compatible
  7. Codec ID : V_MPEGH/ISO/HEVC
  8. Duration : 1 h 38 min
  9. Bit rate : 24.3 Mb/s
  10. Width : 3 832 pixels
  11. Height : 1 436 pixels
  12. Display aspect ratio : 2.669
  13. Frame rate mode : Constant
  14. Frame rate : 23.976 FPS
  15. Color space : YUV
  16. Chroma subsampling : 4:2:0 (Type 2)
  17. Bit depth : 10 bits
  18. Bits/(Pixel*Frame) : 0.184
  19. Stream size : 16.7 GiB (98%)
  20. Default : Yes
  21. Forced : No
  22. Color range : Limited
  23. Color primaries : BT.2020
  24. Transfer characteristics : PQ
  25. Matrix coefficients : BT.2020 non-constant
  26. Mastering display color primaries : Display P3
  27. Mastering display luminance : min: 0.0000 cd/m2, max: 200 cd/m2
  28. Maximum Content Light Level : 574 cd/m2
  29. Maximum Frame-Average Light Level : 111 cd/m2

  30. Audio
  31. ID : 2
  32. Format : AC-3
  33. Format/Info : Audio Coding 3
  34. Commercial name : Dolby Digital
  35. Codec ID : A_AC3
  36. Duration : 1 h 38 min
  37. Bit rate mode : Constant
  38. Bit rate : 384 kb/s
  39. Channel(s) : 6 channels
  40. Channel layout : L R C LFE Ls Rs
  41. Sampling rate : 48.0 kHz
  42. Frame rate : 31.250 FPS (1536 SPF)
  43. Compression mode : Lossy
  44. Stream size : 271 MiB (2%)
  45. Title : English
  46. Language : English
  47. Service kind : Complete Main
  48. Default : No
  49. Forced : No

  50. Text
  51. ID : 3
  52. Format : UTF-8
  53. Codec ID : S_TEXT/UTF8
  54. Codec ID/Info : UTF-8 Plain Text
  55. Duration : 1 h 32 min
  56. Bit rate : 34 b/s
  57. Count of elements : 784
  58. Stream size : 23.0 KiB (0%)
  59. Language : English
  60. Default : Yes
  61. Forced : No
复制代码

老亨利4k Old.Henry.2021.2160p.WEB-DL.x265.10bit.HDR.DDP5.1-4k电影下载

老亨利4k Old.Henry.2021.2160p.WEB-DL.x265.10bit.HDR.DDP5.1【4k HDR 16.98 GB】
[Hao4k]老亨利4k Old.Henry.2021.2160p.WEB-DL.x265.10bit.HDR.DDP5.1-NOGRP.torrent (21.86 KB, 售价: 2 个K币)
回复

使用道具 举报

全部回复6

hhhz 发表于 2021-10-8 18:38:00

hhhz 2

2021-10-8 18:38:00

感谢楼主分享新片!
回复 支持 反对

使用道具 举报

simonky1009 发表于 2021-10-9 09:23:38

simonky1009 3

2021-10-9 09:23:38

ok now, 可以下了,謝謝快速處理.
回复 支持 反对

使用道具 举报

tyb888 发表于 2021-10-9 10:32:18

tyb888 4

2021-10-9 10:32:18

这片子应该不错!
回复 支持 反对

使用道具 举报

阿尔卑斯的雪 发表于 2021-10-9 20:33:27

阿尔卑斯的雪 5

2021-10-9 20:33:27

好片  学习楼主分享
回复 支持 反对

使用道具 举报

qqh4636931 发表于 7 天前

qqh4636931 6

7 天前

没有字幕!!!
回复 支持 反对

使用道具 举报

qqh4636931 发表于 昨天 12:32

qqh4636931 7

昨天 12:32

感谢分享字幕,谢谢!!
回复 支持 反对

使用道具 举报

   发表回复

您需要登录后才可以回帖 登录 | 立即注册

返回列表 本版积分规则

  • 在线客服

  • 返回顶部