微博 微信

Hao4K影音

电影频道
电影封面:
片  名: 死亡来临4k
电影分类: 动作 惊悚 
国  家: 美国 
年  代: 2021年
分 辨 率: 4K(3840x2160)
电影格式: MKV|REMUX 
画质标准: SDR 
音质编码: Dolby Digital Audio 
电影声道: 5.1声道 
帧数/FPS: 23.976 帧
电影语言: 英文原版 
资源大小: 10.40 GB
导  演: 亚伦·凯莎莱斯
豆瓣评分: 6.5 分
中文字幕: -
剧情简介: 杰森·苏戴奇斯、伊万杰琳·莉莉将主演动作惊悚片[死亡来临](Till Death),亚伦·凯莎莱斯([大坏狼])执导,亚伦与纳沃特·帕普莎多、Kai Mark共同操刀剧本。影片故事讲述因持枪抢劫而被判重罪的吉米在服刑12年后,获得假释。而此时,他的童年旧爱安妮身患癌症,即将离世。获释后的他发誓要给安妮最好的临终时刻。不幸的是,一切都没那么简单。
死亡来临前 / Till Death/死亡来临4k South.of.Heaven.2021.2160p.WEB-DL.x265.10bit.SDR.DDP5.1-4k电影信息
  1. Video
  2. ID : 1
  3. Format : HEVC
  4. Format/Info : High Efficiency Video Coding
  5. Format profile : Main 10@L5@High
  6. Codec ID : V_MPEGH/ISO/HEVC
  7. Duration : 1 h 59 min
  8. Bit rate : 12.0 Mb/s
  9. Width : 3 832 pixels
  10. Height : 1 628 pixels
  11. Display aspect ratio : 2.35:1
  12. Frame rate mode : Constant
  13. Frame rate : 23.976 FPS
  14. Color space : YUV
  15. Chroma subsampling : 4:2:0
  16. Bit depth : 10 bits
  17. Bits/(Pixel*Frame) : 0.080
  18. Stream size : 10.1 GiB (97%)
  19. Default : Yes
  20. Forced : No
  21. Color range : Limited
  22. Color primaries : BT.709
  23. Transfer characteristics : BT.709
  24. Matrix coefficients : BT.709

  25. Audio
  26. ID : 2
  27. Format : AC-3
  28. Format/Info : Audio Coding 3
  29. Commercial name : Dolby Digital
  30. Codec ID : A_AC3
  31. Duration : 1 h 59 min
  32. Bit rate mode : Constant
  33. Bit rate : 384 kb/s
  34. Channel(s) : 6 channels
  35. Channel layout : L R C LFE Ls Rs
  36. Sampling rate : 48.0 kHz
  37. Frame rate : 31.250 FPS (1536 SPF)
  38. Compression mode : Lossy
  39. Stream size : 329 MiB (3%)
  40. Title : English
  41. Language : English
  42. Service kind : Complete Main
  43. Default : No
  44. Forced : No

  45. Text #1
  46. ID : 3
  47. Format : UTF-8
  48. Codec ID : S_TEXT/UTF8
  49. Codec ID/Info : UTF-8 Plain Text
  50. Duration : 1 h 55 min
  51. Bit rate : 48 b/s
  52. Count of elements : 1461
  53. Stream size : 40.9 KiB (0%)
  54. Language : English
  55. Default : Yes
  56. Forced : No

  57. Text #2
  58. ID : 4
  59. Format : UTF-8
  60. Codec ID : S_TEXT/UTF8
  61. Codec ID/Info : UTF-8 Plain Text
  62. Duration : 1 h 58 min
  63. Bit rate : 46 b/s
  64. Count of elements : 1332
  65. Stream size : 39.9 KiB (0%)
  66. Title : Spanish
  67. Language : Spanish
  68. Default : No
  69. Forced : No
复制代码

死亡来临前 / Till Death/死亡来临4k South.of.Heaven.2021.2160p.WEB-DL.x265.10bit.SDR.DDP5.1-4k电影下载

死亡来临4k South.of.Heaven.2021.2160p.WEB-DL.x265.10bit.SDR.DDP5.1【4k SDR  10.40 GB】
[Hao4k]死亡来临4k South.of.Heaven.2021.2160p.WEB-DL.x265.10bit.SDR.DDP5.1-NOGRP.torrent (13.65 KB, 售价: 2 个K币)
回复

使用道具 举报

全部回复3

liyun80000 发表于 7 天前

liyun80000 2

7 天前


我看不错噢 谢谢楼主
回复 支持 反对

使用道具 举报

huangkun 发表于 6 天前

huangkun 3

6 天前

看情节好像不错哦
回复 支持 反对

使用道具 举报

bbgrnnji 发表于 6 天前

bbgrnnji 4

6 天前

谢谢楼主分享
回复 支持 反对

使用道具 举报

   发表回复

您需要登录后才可以回帖 登录 | 立即注册

返回列表 本版积分规则

  • 在线客服

  • 返回顶部