微博 微信

Hao4K影音

电视剧频道
电视剧封面:
电视剧名: 群星之间4k
年  代: 2021  
国  家: 美国
类  别: 纪录片 
语  言: 英语
字  幕: 英文原版
上映日期: 2021-10-06
文件格式: mkv    
视频效果: 4K(3840x2160)    
资源大小: 32.91 GB
片  长: -
导  演: Chris Cassidy
剧情简介: -
群星之间4k Among.the.Stars.S01.2160p.DSNP.WEB-DL.x265.10bit.HDR.DDP5.1.Atmos-4k美剧信息
  1. Video
  2. ID : 1
  3. Format : HEVC
  4. Format/Info : High Efficiency Video Coding
  5. Format profile : Main 10@L5@High
  6. HDR format : SMPTE ST 2086, HDR10 compatible
  7. Codec ID : V_MPEGH/ISO/HEVC
  8. Duration : 52 min 19 s
  9. Bit rate : 16.5 Mb/s
  10. Width : 3 840 pixels
  11. Height : 2 160 pixels
  12. Display aspect ratio : 16:9
  13. Frame rate mode : Constant
  14. Frame rate : 23.976 (24000/1001) FPS
  15. Color space : YUV
  16. Chroma subsampling : 4:2:0
  17. Bit depth : 10 bits
  18. Bits/(Pixel*Frame) : 0.083
  19. Stream size : 6.02 GiB (96%)
  20. Language : English
  21. Default : Yes
  22. Forced : No
  23. Color range : Limited
  24. Color primaries : BT.2020
  25. Transfer characteristics : PQ
  26. Matrix coefficients : BT.2020 non-constant
  27. Mastering display color primaries : BT.2020
  28. Mastering display luminance : min: 0.0010 cd/m2, max: 1000 cd/m2

  29. Audio
  30. ID : 2
  31. Format : E-AC-3 JOC
  32. Format/Info : Enhanced AC-3 with Joint Object Coding
  33. Commercial name : Dolby Digital Plus with Dolby Atmos
  34. Format settings : Dolby Surround EX
  35. Codec ID : A_EAC3
  36. Duration : 52 min 19 s
  37. Bit rate mode : Constant
  38. Bit rate : 768 kb/s
  39. Channel(s) : 6 channels
  40. Channel layout : L R C LFE Ls Rs
  41. Sampling rate : 48.0 kHz
  42. Frame rate : 31.250 FPS (1536 SPF)
  43. Compression mode : Lossy
  44. Stream size : 287 MiB (4%)
  45. Language : English
  46. Service kind : Complete Main
  47. Default : Yes
  48. Forced : No
  49. Complexity index : 16
  50. Number of dynamic objects : 15
  51. Bed channel count : 1 channel
  52. Bed channel configuration : LFE

  53. Text #1
  54. ID : 3
  55. Format : UTF-8
  56. Codec ID : S_TEXT/UTF8
  57. Codec ID/Info : UTF-8 Plain Text
  58. Duration : 50 min 56 s
  59. Bit rate : 99 b/s
  60. Count of elements : 746
  61. Stream size : 37.2 KiB (0%)
  62. Title : English (SDH)
  63. Language : English
  64. Default : No
  65. Forced : No

  66. Text #2
  67. ID : 4
  68. Format : UTF-8
  69. Codec ID : S_TEXT/UTF8
  70. Codec ID/Info : UTF-8 Plain Text
  71. Duration : 52 min 4 s
  72. Bit rate : 86 b/s
  73. Count of elements : 749
  74. Stream size : 33.1 KiB (0%)
  75. Title : Dansk
  76. Language : Danish
  77. Default : No
  78. Forced : No

  79. Text #3
  80. ID : 5
  81. Format : UTF-8
  82. Codec ID : S_TEXT/UTF8
  83. Codec ID/Info : UTF-8 Plain Text
  84. Duration : 52 min 4 s
  85. Bit rate : 96 b/s
  86. Count of elements : 750
  87. Stream size : 36.8 KiB (0%)
  88. Title : Deutsch
  89. Language : German
  90. Default : No
  91. Forced : No

  92. Text #4
  93. ID : 6
  94. Format : UTF-8
  95. Codec ID : S_TEXT/UTF8
  96. Codec ID/Info : UTF-8 Plain Text
  97. Duration : 52 min 4 s
  98. Bit rate : 87 b/s
  99. Count of elements : 754
  100. Stream size : 33.3 KiB (0%)
  101. Title : Español
  102. Language : Spanish
  103. Default : No
  104. Forced : No

  105. Text #5
  106. ID : 7
  107. Format : UTF-8
  108. Codec ID : S_TEXT/UTF8
  109. Codec ID/Info : UTF-8 Plain Text
  110. Duration : 52 min 4 s
  111. Bit rate : 95 b/s
  112. Count of elements : 753
  113. Stream size : 36.3 KiB (0%)
  114. Title : Español (Latinoamericano)
  115. Language : Spanish
  116. Default : No
  117. Forced : No

  118. Text #6
  119. ID : 8
  120. Format : UTF-8
  121. Codec ID : S_TEXT/UTF8
  122. Codec ID/Info : UTF-8 Plain Text
  123. Duration : 52 min 4 s
  124. Bit rate : 78 b/s
  125. Count of elements : 719
  126. Stream size : 29.8 KiB (0%)
  127. Title : Suomi
  128. Language : Finnish
  129. Default : No
  130. Forced : No

  131. Text #7
  132. ID : 9
  133. Format : UTF-8
  134. Codec ID : S_TEXT/UTF8
  135. Codec ID/Info : UTF-8 Plain Text
  136. Duration : 52 min 4 s
  137. Bit rate : 97 b/s
  138. Count of elements : 774
  139. Stream size : 37.2 KiB (0%)
  140. Title : Français
  141. Language : French
  142. Default : No
  143. Forced : No

  144. Text #8
  145. ID : 10
  146. Format : UTF-8
  147. Codec ID : S_TEXT/UTF8
  148. Codec ID/Info : UTF-8 Plain Text
  149. Duration : 52 min 4 s
  150. Bit rate : 91 b/s
  151. Count of elements : 755
  152. Stream size : 35.0 KiB (0%)
  153. Title : Italiano
  154. Language : Italian
  155. Default : No
  156. Forced : No

  157. Text #9
  158. ID : 11
  159. Format : UTF-8
  160. Codec ID : S_TEXT/UTF8
  161. Codec ID/Info : UTF-8 Plain Text
  162. Duration : 52 min 4 s
  163. Bit rate : 74 b/s
  164. Count of elements : 710
  165. Stream size : 28.4 KiB (0%)
  166. Title : Japanese
  167. Language : Japanese
  168. Default : No
  169. Forced : No

  170. Text #10
  171. ID : 12
  172. Format : UTF-8
  173. Codec ID : S_TEXT/UTF8
  174. Codec ID/Info : UTF-8 Plain Text
  175. Duration : 52 min 4 s
  176. Bit rate : 78 b/s
  177. Count of elements : 605
  178. Stream size : 30.0 KiB (0%)
  179. Title : Nederlands
  180. Language : Dutch
  181. Default : No
  182. Forced : No

  183. Text #11
  184. ID : 13
  185. Format : UTF-8
  186. Codec ID : S_TEXT/UTF8
  187. Codec ID/Info : UTF-8 Plain Text
  188. Duration : 52 min 4 s
  189. Bit rate : 86 b/s
  190. Count of elements : 749
  191. Stream size : 33.2 KiB (0%)
  192. Title : Norsk
  193. Language : Norwegian
  194. Default : No
  195. Forced : No

  196. Text #12
  197. ID : 14
  198. Format : UTF-8
  199. Codec ID : S_TEXT/UTF8
  200. Codec ID/Info : UTF-8 Plain Text
  201. Duration : 52 min 4 s
  202. Bit rate : 67 b/s
  203. Count of elements : 698
  204. Stream size : 25.9 KiB (0%)
  205. Title : Polski
  206. Language : Polish
  207. Default : No
  208. Forced : No

  209. Text #13
  210. ID : 15
  211. Format : UTF-8
  212. Codec ID : S_TEXT/UTF8
  213. Codec ID/Info : UTF-8 Plain Text
  214. Duration : 52 min 4 s
  215. Bit rate : 91 b/s
  216. Count of elements : 752
  217. Stream size : 34.7 KiB (0%)
  218. Title : Português
  219. Language : Portuguese
  220. Default : No
  221. Forced : No

  222. Text #14
  223. ID : 16
  224. Format : UTF-8
  225. Codec ID : S_TEXT/UTF8
  226. Codec ID/Info : UTF-8 Plain Text
  227. Duration : 52 min 4 s
  228. Bit rate : 90 b/s
  229. Count of elements : 757
  230. Stream size : 34.7 KiB (0%)
  231. Title : Português (Brasil)
  232. Language : Portuguese
  233. Default : No
  234. Forced : No

  235. Text #15
  236. ID : 17
  237. Format : UTF-8
  238. Codec ID : S_TEXT/UTF8
  239. Codec ID/Info : UTF-8 Plain Text
  240. Duration : 52 min 4 s
  241. Bit rate : 92 b/s
  242. Count of elements : 734
  243. Stream size : 35.2 KiB (0%)
  244. Title : Svenska
  245. Language : Swedish
  246. Default : No
  247. Forced : No

  248. Text #16
  249. ID : 18
  250. Format : UTF-8
  251. Codec ID : S_TEXT/UTF8
  252. Codec ID/Info : UTF-8 Plain Text
  253. Duration : 52 min 4 s
  254. Bit rate : 71 b/s
  255. Count of elements : 766
  256. Stream size : 27.2 KiB (0%)
  257. Title : Chinese (Hong Kong)
  258. Language : Chinese
  259. Default : No
  260. Forced : No

  261. Text #17
  262. ID : 19
  263. Format : UTF-8
  264. Codec ID : S_TEXT/UTF8
  265. Codec ID/Info : UTF-8 Plain Text
  266. Duration : 52 min 4 s
  267. Bit rate : 71 b/s
  268. Count of elements : 764
  269. Stream size : 27.3 KiB (0%)
  270. Title : Chinese (Simplified)
  271. Language : Chinese
  272. Default : No
  273. Forced : No
复制代码

群星之间4k Among.the.Stars.S01.2160p.DSNP.WEB-DL.x265.10bit.HDR.DDP5.1.Atmos-4k美剧下载
群星之间4k Among.the.Stars.S01.2160p.DSNP.WEB-DL.x265.10bit.HDR.DDP5.1.Atmos简繁中字【32.91 GB】
[Hao4k]群星之间4k Among.the.Stars.S01.2160p.DSNP.WEB-DL.x265.10bit.HDR.DDP5.1.Atmos-KOGi.torrent (42.2 KB)
回复

使用道具 举报

全部回复1

r31325 发表于 2021-10-9 14:43:09

r31325 2

2021-10-9 14:43:09

是天文学知识吗
回复 支持 反对

使用道具 举报

   发表回复

您需要登录后才可以回帖 登录 | 立即注册

返回列表 本版积分规则

  • 在线客服

  • 返回顶部