微博 微信 手机APP

Hao4K影音

电视剧频道
电视剧封面:
电视剧名: 阿卡普尔科4k
年  代: 2021  
国  家: 美国
类  别: 喜剧 
语  言: 英语
字  幕: 英文原版
上映日期: 2021-10-08
文件格式: mkv    
视频效果: 4K(3840x2160)    
资源大小: 4.91 GB
片  长: 30 分钟
导  演: Gaz Alazraki
剧情简介: Apple TV+预定半小时双语喜剧《阿卡普尔科 Acapulco》。
  这是一部西班牙语-英语剧集,Eugenio Derbez担任执行制片并出演,灵感来自他主演的电影《如何做一名拉丁情人 How to Be A Latin Lover》。
  故事讲述一名年轻墨西哥男子梦想成真,在阿卡普尔科最热门的度假胜地找到了一份千载难逢的工作。随着自己所有的信仰和道德观念都开始被颠覆,他很快意识到这份工作比想象中要复杂得多。该剧背景为1984年,Derbez饰演当下时刻的主角,并担任旁白。
  本剧由《佐伊的超凡歌单》主创Austin Winsberg,和《半血缘兄弟》编剧Eduardo Cisneros、Jason Shuman共同创作。Winsberg担任剧集运作人,《老爸老妈浪漫史》编剧Chris Harris为联合剧集运作人。
阿卡普尔科4k Acapulco.2021.S01E01.2160p.ATVP.WEB-DL.DDP5.1.Atmos.DV.MKV.x265-4k美剧信息
  1. Video
  2. ID : 1
  3. Format : HEVC
  4. Format/Info : High Efficiency Video Coding
  5. Format profile : Main 10@L5@High
  6. HDR format : Dolby Vision, Version 1.0, dvhe.05.06, BL+RPU
  7. Codec ID : V_MPEGH/ISO/HEVC
  8. Duration : 36 min 7 s
  9. Bit rate : 24.2 Mb/s
  10. Width : 3 840 pixels
  11. Height : 2 160 pixels
  12. Display aspect ratio : 16:9
  13. Frame rate mode : Constant
  14. Frame rate : 23.976 (24000/1001) FPS
  15. Color space : YUV
  16. Chroma subsampling : 4:2:0
  17. Bit depth : 10 bits
  18. Bits/(Pixel*Frame) : 0.121
  19. Stream size : 6.09 GiB (95%)
  20. Language : English
  21. Default : Yes
  22. Forced : No

  23. Audio
  24. ID : 2
  25. Format : E-AC-3 JOC
  26. Format/Info : Enhanced AC-3 with Joint Object Coding
  27. Commercial name : Dolby Digital Plus with Dolby Atmos
  28. Codec ID : A_EAC3
  29. Duration : 36 min 7 s
  30. Bit rate mode : Constant
  31. Bit rate : 768 kb/s
  32. Channel(s) : 6 channels
  33. Channel layout : L R C LFE Ls Rs
  34. Sampling rate : 48.0 kHz
  35. Frame rate : 31.250 FPS (1536 SPF)
  36. Compression mode : Lossy
  37. Stream size : 198 MiB (3%)
  38. Language : English
  39. Service kind : Complete Main
  40. Default : Yes
  41. Forced : No
  42. Complexity index : 16
  43. Number of dynamic objects : 15
  44. Bed channel count : 1 channel
  45. Bed channel configuration : LFE

  46. Text #1
  47. ID : 3
  48. Format : UTF-8
  49. Codec ID : S_TEXT/UTF8
  50. Codec ID/Info : UTF-8 Plain Text
  51. Title : English [Forced]
  52. Language : English
  53. Default : Yes
  54. Forced : Yes

  55. Text #2
  56. ID : 4
  57. Format : UTF-8
  58. Codec ID : S_TEXT/UTF8
  59. Codec ID/Info : UTF-8 Plain Text
  60. Title : English
  61. Language : English
  62. Default : No
  63. Forced : No

  64. Text #3
  65. ID : 5
  66. Format : UTF-8
  67. Codec ID : S_TEXT/UTF8
  68. Codec ID/Info : UTF-8 Plain Text
  69. Title : Arabic
  70. Language : Arabic
  71. Default : No
  72. Forced : No

  73. Text #4
  74. ID : 6
  75. Format : UTF-8
  76. Codec ID : S_TEXT/UTF8
  77. Codec ID/Info : UTF-8 Plain Text
  78. Title : Bulgarian
  79. Language : Bulgarian
  80. Default : No
  81. Forced : No

  82. Text #5
  83. ID : 7
  84. Format : UTF-8
  85. Codec ID : S_TEXT/UTF8
  86. Codec ID/Info : UTF-8 Plain Text
  87. Title : Chinese Simplified
  88. Language : Chinese
  89. Default : No
  90. Forced : No

  91. Text #6
  92. ID : 8
  93. Format : UTF-8
  94. Codec ID : S_TEXT/UTF8
  95. Codec ID/Info : UTF-8 Plain Text
  96. Title : Chinese Traditional
  97. Language : Chinese
  98. Default : No
  99. Forced : No
复制代码

阿卡普尔科4k Acapulco.2021.S01E01.2160p.ATVP.WEB-DL.DDP5.1.Atmos.DV.MKV.x265-4k美剧下载

阿卡普尔科4k Acapulco.2021.S01E01.2160p.ATVP.WEB-DL.DDP5.1.Atmos.DV.MKV.x265杜比视界【6.42 GB】
[Hao4k]阿卡普尔科4k Acapulco.2021.S01E01.2160p.ATVP.WEB-DL.DDP5.1.Atmos.DV.MKV.x265-GGEZ.torrent (16.7 KB)
回复

使用道具 举报

   发表回复

您需要登录后才可以回帖 登录 | 立即注册

返回列表 本版积分规则

  • 发布新帖

  • 客服/帮助

  • 手机APP

  • 返回顶部