微博 微信

Hao4K影音

电视剧频道
电视剧封面:
电视剧名: 世界之战4k
年  代: 2019  
国  家: 美国
类  别: 科幻 剧情 悬疑 
语  言: 英语
字  幕: 英文原版
上映日期: 2019-10-28
文件格式: mkv    
视频效果: 4K(3840x2160)    
资源大小: 36.07 GB
片  长: 60 分钟
导  演: 吉尔斯·库里耶 / 理查德·克拉克
剧情简介: AGC Television联同法国台Canal+及Fox Networks Group的欧洲+非洲分部拍摄经典科幻题材剧《世界之战 War of the Worlds》,这部改编自H.G. Wells同名小说的剧集会有8集,每集60分钟,现正于英国及法国拍摄。
  这版本的主演是Gabriel Byrne及Elizabeth McGovern,其他演员包括Léa Drucker、Natasha Little、Daisy Edgar Jones、Stéphane Caillard、Adel Bencherif及Guillaume Gouix。
世界大战 / 地球人大战火星人/世界之战4k War.Of.The.Worlds.2019.S01.2160p.WEB-DL.DDP5.1.x265-美剧信息
  1. Video
  2. ID : 1
  3. Format : HEVC
  4. Format/Info : High Efficiency Video Coding
  5. Format profile : Main 10@L5@High
  6. Codec ID : V_MPEGH/ISO/HEVC
  7. Duration : 52 min 22 s
  8. Bit rate : 12.1 Mb/s
  9. Width : 3 840 pixels
  10. Height : 1 606 pixels
  11. Display aspect ratio : 2.40:1
  12. Frame rate mode : Constant
  13. Frame rate : 23.976 FPS
  14. Color space : YUV
  15. Chroma subsampling : 4:2:0
  16. Bit depth : 10 bits
  17. Bits/(Pixel*Frame) : 0.082
  18. Stream size : 4.42 GiB (95%)
  19. Default : Yes
  20. Forced : No
  21. Color range : Limited
  22. Color primaries : BT.709
  23. Transfer characteristics : BT.709
  24. Matrix coefficients : BT.709

  25. Audio
  26. ID : 2
  27. Format : E-AC-3
  28. Format/Info : Enhanced AC-3
  29. Commercial name : Dolby Digital Plus
  30. Codec ID : A_EAC3
  31. Duration : 52 min 22 s
  32. Bit rate mode : Constant
  33. Bit rate : 640 kb/s
  34. Channel(s) : 6 channels
  35. Channel layout : L R C LFE Ls Rs
  36. Sampling rate : 48.0 kHz
  37. Frame rate : 31.250 FPS (1536 SPF)
  38. Compression mode : Lossy
  39. Stream size : 240 MiB (5%)
  40. Language : English
  41. Service kind : Complete Main
  42. Default : Yes
  43. Forced : No

  44. Text #1
  45. ID : 3
  46. Format : UTF-8
  47. Codec ID : S_TEXT/UTF8
  48. Codec ID/Info : UTF-8 Plain Text
  49. Duration : 50 min 56 s
  50. Bit rate : 24 b/s
  51. Count of elements : 333
  52. Stream size : 8.99 KiB (0%)
  53. Language : English
  54. Default : No
  55. Forced : No

  56. Text #2
  57. ID : 4
  58. Format : UTF-8
  59. Codec ID : S_TEXT/UTF8
  60. Codec ID/Info : UTF-8 Plain Text
  61. Duration : 51 min 9 s
  62. Bit rate : 32 b/s
  63. Count of elements : 514
  64. Stream size : 12.3 KiB (0%)
  65. Title : SDH
  66. Language : English
  67. Default : No
  68. Forced : No

  69. Menu
  70. 00:00:00.000 : Studio Logo
  71. 00:00:01.000 : Previously On
  72. 00:01:51.000 : Opening Credits
  73. 00:02:23.000 : Title Sequence
  74. 00:02:27.000 : Scene 5
  75. 00:03:47.000 : Scene 6
  76. 00:19:26.000 : Scene 7
  77. 00:42:37.000 : Scene 8
  78. 00:51:22.000 : End Credits
复制代码

世界大战 / 地球人大战火星人/世界之战4k War.Of.The.Worlds.2019.S01.2160p.WEB-DL.DDP5.1.x265-美剧下载

世界之战4k War.Of.The.Worlds.2019.S01.2160p.WEB-DL.DDP5.1.x265【36.07 GB】
[Hao4k]世界之战4k War.Of.The.Worlds.2019.S01.2160p.WEB-DL.DDP5.1.x265-FLUX.torrent (46.39 KB)
回复

使用道具 举报

全部回复1

lqh228 发表于 3 天前

lqh228 2

3 天前

谢分享,可惜没中文字幕
回复 支持 反对

使用道具 举报

   发表回复

您需要登录后才可以回帖 登录 | 立即注册

返回列表 本版积分规则

  • 在线客服

  • 返回顶部