微博 微信

Hao4K影音

电视剧频道
电视剧封面:
电视剧名: 秃鹰 第一季4k
年  代: 2018  
国  家: 美国
类  别: 犯罪 惊悚 悬疑 
语  言: 英语
字  幕: 英文原版
上映日期: 2018-06-06
文件格式: mkv    
视频效果: 4K(3840x2160)    
资源大小: 42.96 GB
片  长: 45 分钟
导  演: 劳伦斯·特里林 / 安德鲁·麦卡锡
剧情简介:  Max Irons以主演加盟Audience Network直接预订10集的《秃鹰 Condor》,该剧根据1975年的政治惊悚片《秃鹰七十二小时 Three Days of the Condor》所改篇。Max Irons将饰演Joe Turner,该角在电影中由Robert Redford饰演。
  剧集版由Jason Smilovic及Todd Katzberg执笔,讲述年轻的CIA分析员Joe Turner,他的理想主义在一个恐怖﹑天才﹑能威胁到数百万条人命的计划前受到考验。Joe Turner是个理想主义的千禧一代,他秘密加入CIA,希望能从内部改革。但是当办公室所有人都被职业杀手所杀后,他被迫离开象牙塔,并进入这场危险的战争中。如果要生存下去,他得做出过去从未想象过能做到的事,并且要理解到自己真正性格。
秃鹰 第一季4k Condor.S01.2160p.WEB-DL.DDP5.1.x265-4k美剧信息
  1. Video
  2. ID : 1
  3. Format : HEVC
  4. Format/Info : High Efficiency Video Coding
  5. Format profile : Main 10@L5@High
  6. Codec ID : V_MPEGH/ISO/HEVC
  7. Duration : 53 min 40 s
  8. Bit rate : 11.9 Mb/s
  9. Width : 3 840 pixels
  10. Height : 1 920 pixels
  11. Display aspect ratio : 2.000
  12. Frame rate mode : Constant
  13. Frame rate : 23.976 FPS
  14. Color space : YUV
  15. Chroma subsampling : 4:2:0
  16. Bit depth : 10 bits
  17. Bits/(Pixel*Frame) : 0.067
  18. Stream size : 4.45 GiB (95%)
  19. Default : Yes
  20. Forced : No
  21. Color range : Limited
  22. Color primaries : BT.709
  23. Transfer characteristics : BT.709
  24. Matrix coefficients : BT.709

  25. Audio
  26. ID : 2
  27. Format : E-AC-3
  28. Format/Info : Enhanced AC-3
  29. Commercial name : Dolby Digital Plus
  30. Codec ID : A_EAC3
  31. Duration : 53 min 40 s
  32. Bit rate mode : Constant
  33. Bit rate : 640 kb/s
  34. Channel(s) : 6 channels
  35. Channel layout : L R C LFE Ls Rs
  36. Sampling rate : 48.0 kHz
  37. Frame rate : 31.250 FPS (1536 SPF)
  38. Compression mode : Lossy
  39. Stream size : 246 MiB (5%)
  40. Language : English
  41. Service kind : Complete Main
  42. Default : Yes
  43. Forced : No

  44. Text #1
  45. ID : 3
  46. Format : UTF-8
  47. Codec ID : S_TEXT/UTF8
  48. Codec ID/Info : UTF-8 Plain Text
  49. Duration : 49 min 23 s
  50. Bit rate : 72 b/s
  51. Count of elements : 830
  52. Stream size : 26.3 KiB (0%)
  53. Language : English
  54. Default : No
  55. Forced : No

  56. Text #2
  57. ID : 4
  58. Format : UTF-8
  59. Codec ID : S_TEXT/UTF8
  60. Codec ID/Info : UTF-8 Plain Text
  61. Duration : 51 min 33 s
  62. Bit rate : 75 b/s
  63. Count of elements : 907
  64. Stream size : 28.5 KiB (0%)
  65. Title : SDH
  66. Language : English
  67. Default : No
  68. Forced : No

  69. Menu
  70. 00:00:00.000 : Studio Logo
  71. 00:00:01.000 : Title Sequence
  72. 00:00:28.000 : Scene 3
  73. 00:04:17.000 : Scene 4
  74. 00:13:34.000 : Scene 5
  75. 00:19:46.000 : Scene 6
  76. 00:28:25.000 : Scene 7
  77. 00:34:29.000 : Scene 8
  78. 00:43:37.000 : Scene 9
  79. 00:51:32.000 : End Credits
复制代码

秃鹰 第一季4k Condor.S01.2160p.WEB-DL.DDP5.1.x265-4k美下载
秃鹰 第一季4k Condor.S01.2160p.WEB-DL.DDP5.1.x265【42.96 GB】
[Hao4k]秃鹰 第一季4k Condor.S01.2160p.WEB-DL.DDP5.1.x265-FLUX.torrent (55.02 KB)
回复

使用道具 举报

全部回复1

waxyh 发表于 7 天前

waxyh 2

7 天前

不错的片子,剧版谍影重重
回复 支持 反对

使用道具 举报

   发表回复

您需要登录后才可以回帖 登录 | 立即注册

返回列表 本版积分规则

  • 在线客服

  • 返回顶部