微博 微信

Hao4K影音

电影频道
电影封面:
片  名: 罪人4k
电影分类: 犯罪 惊悚 剧情 
国  家: 美国 
年  代: 2021年
分 辨 率: 4K(3840x2160)
电影格式: MKV|REMUX 
画质标准: HDR 
音质编码: Dolby Digital Plus Audio 
电影声道: 其他 
帧数/FPS: 23.976 帧
电影语言: 英文原版 
资源大小: 12.9 GB
导  演: 安东尼·福奎阿
豆瓣评分: 6.5 分
中文字幕: /thread-62607-1-1.html
剧情简介: 该电影背景设定在 911 紧急呼叫中心的一个早上。呼叫接线员乔·贝勒(吉伦哈尔饰)试图拯救一名危在旦夕的呼叫者,但他很快发现事实并非如此,而面对真相是摆脱困境的唯一办法。
罪人美国版 / 接线追缉(港/台)/罪人4k The.Guilty.2021.2160p.HDR.x265-4k电影信息
  1. Video
  2. ID : 1
  3. Format : HEVC
  4. Format/Info : High Efficiency Video Coding
  5. Format profile : Main [email protected]@High
  6. HDR format : SMPTE ST 2086, HDR10 compatible
  7. Codec ID : V_MPEGH/ISO/HEVC
  8. Duration : 1 h 29 min
  9. Bit rate : 17.9 Mb/s
  10. Width : 3 840 pixels
  11. Height : 1 608 pixels
  12. Display aspect ratio : 2.40:1
  13. Frame rate mode : Constant
  14. Frame rate : 23.976 (24000/1001) FPS
  15. Color space : YUV
  16. Chroma subsampling : 4:2:0 (Type 2)
  17. Bit depth : 10 bits
  18. Bits/(Pixel*Frame) : 0.121
  19. Stream size : 11.2 GiB (87%)
  20. Title : 2160p
  21. Writing library : x265 3.5+15-4bf31dc15:[Windows][GCC 10.0.0][64 bit] 10bit
  22. Language : English
  23. Default : Yes
  24. Forced : No
  25. Color range : Limited
  26. Color primaries : BT.2020
  27. Transfer characteristics : PQ
  28. Matrix coefficients : BT.2020 non-constant
  29. Mastering display color primaries : Display P3
  30. Mastering display luminance : min: 0.0001 cd/m2, max: 1000 cd/m2
  31. Maximum Content Light Level : 756 cd/m2
  32. Maximum Frame-Average Light Level : 97 cd/m2

  33. Audio #1
  34. ID : 2
  35. Format : E-AC-3
  36. Format/Info : Enhanced AC-3
  37. Commercial name : Dolby Digital Plus
  38. Codec ID : A_EAC3
  39. Duration : 1 h 31 min
  40. Bit rate mode : Constant
  41. Bit rate : 640 kb/s
  42. Channel(s) : 6 channels
  43. Channel layout : L R C LFE Ls Rs
  44. Sampling rate : 48.0 kHz
  45. Frame rate : 31.250 FPS (1536 SPF)
  46. Compression mode : Lossy
  47. Stream size : 417 MiB (3%)
  48. Title : E-AC3 ITA
  49. Language : Italian
  50. Service kind : Complete Main
  51. Default : Yes
  52. Forced : Yes

  53. Audio #2
  54. ID : 3
  55. Format : AC-3
  56. Format/Info : Audio Coding 3
  57. Commercial name : Dolby Digital
  58. Codec ID : A_AC3
  59. Duration : 1 h 31 min
  60. Bit rate mode : Constant
  61. Bit rate : 640 kb/s
  62. Channel(s) : 6 channels
  63. Channel layout : L R C LFE Ls Rs
  64. Sampling rate : 48.0 kHz
  65. Frame rate : 31.250 FPS (1536 SPF)
  66. Compression mode : Lossy
  67. Stream size : 417 MiB (3%)
  68. Title : AC3 ITA
  69. Language : Italian
  70. Service kind : Complete Main
  71. Default : No
  72. Forced : No

  73. Audio #3
  74. ID : 4
  75. Format : E-AC-3 JOC
  76. Format/Info : Enhanced AC-3 with Joint Object Coding
  77. Commercial name : Dolby Digital Plus with Dolby Atmos
  78. Codec ID : A_EAC3
  79. Duration : 1 h 31 min
  80. Bit rate mode : Constant
  81. Bit rate : 768 kb/s
  82. Channel(s) : 6 channels
  83. Channel layout : L R C LFE Ls Rs
  84. Sampling rate : 48.0 kHz
  85. Frame rate : 31.250 FPS (1536 SPF)
  86. Compression mode : Lossy
  87. Stream size : 500 MiB (4%)
  88. Title : E-AC3 ENG
  89. Language : English
  90. Service kind : Complete Main
  91. Default : No
  92. Forced : No
  93. Complexity index : 16
  94. Number of dynamic objects : 15
  95. Bed channel count : 1 channel
  96. Bed channel configuration : LFE

  97. Audio #4
  98. ID : 5
  99. Format : AC-3
  100. Format/Info : Audio Coding 3
  101. Commercial name : Dolby Digital
  102. Codec ID : A_AC3
  103. Duration : 1 h 31 min
  104. Bit rate mode : Constant
  105. Bit rate : 640 kb/s
  106. Channel(s) : 6 channels
  107. Channel layout : L R C LFE Ls Rs
  108. Sampling rate : 48.0 kHz
  109. Frame rate : 31.250 FPS (1536 SPF)
  110. Compression mode : Lossy
  111. Stream size : 417 MiB (3%)
  112. Title : AC3 ENG
  113. Language : English
  114. Service kind : Complete Main
  115. Default : Yes
  116. Forced : No

  117. Text #1
  118. ID : 6
  119. Format : UTF-8
  120. Codec ID : S_TEXT/UTF8
  121. Codec ID/Info : UTF-8 Plain Text
  122. Duration : 1 h 28 min
  123. Bit rate : 0 b/s
  124. Count of elements : 10
  125. Stream size : 223 Bytes (0%)
  126. Title : SUB ITA Forced
  127. Language : Italian
  128. Default : No
  129. Forced : Yes

  130. Text #2
  131. ID : 7
  132. Format : UTF-8
  133. Codec ID : S_TEXT/UTF8
  134. Codec ID/Info : UTF-8 Plain Text
  135. Duration : 1 h 28 min
  136. Bit rate : 53 b/s
  137. Count of elements : 1186
  138. Stream size : 34.6 KiB (0%)
  139. Title : SUB ITA
  140. Language : Italian
  141. Default : No
  142. Forced : No

  143. Text #3
  144. ID : 8
  145. Format : UTF-8
  146. Codec ID : S_TEXT/UTF8
  147. Codec ID/Info : UTF-8 Plain Text
  148. Duration : 1 h 23 min
  149. Bit rate : 79 b/s
  150. Count of elements : 1464
  151. Stream size : 48.5 KiB (0%)
  152. Title : SUB ENG
  153. Language : English
  154. Default : No
  155. Forced : No
复制代码

罪人美国版 / 接线追缉(港/台)/罪人4k The.Guilty.2021.2160p.HDR.x265-4k电影下载

罪人4k The.Guilty.2021.2160p.HDR.x265【12.9 GB】
罪人4k.txt (82 Bytes)
回复

使用道具 举报

全部回复1

bbgrnnji 发表于 5 天前

bbgrnnji 2

5 天前

等是一种美德,哈哈
回复 支持 反对

使用道具 举报

   发表回复

您需要登录后才可以回帖 登录 | 立即注册

返回列表 本版积分规则

  • 在线客服

  • 返回顶部