微博 微信 手机APP

Hao4K影音

电影频道
电影封面:
片  名: 周末夜狂热4k
电影分类: 剧情 爱情片 其他 
国  家: 美国 
年  代: 70年代
分 辨 率: 4K(3840x2160)
电影格式: MKV|REMUX 
画质标准: HDR 
音质编码: Dolby Digital Audio 
电影声道: 其他 
帧数/FPS: 23.976 帧
电影语言: 英文原版 
资源大小: 15.9 GB
导  演: 约翰·班德汉姆
豆瓣评分: 8.0 分
中文字幕: -
剧情简介: Tony Manero(约翰·特拉沃尔塔 John Travolta 饰)是纽约布鲁克林区一个19岁的青年,白天在一个五金店打工,看起来是一个平凡的少年。然而到了周六晚上,Tony就是当地迪斯科舞厅光芒四射的“舞王”。Annette是Tony的舞伴,两人本来计划参加舞厅将要举办的跳舞比赛。然而当Tony遇见了Stephanie Mangano(凯伦·琳恩·高妮 Karen Lynn Gorney 饰)后,被她的舞技所打动。Tony向Stephanie求爱遭拒,但是Stephanie同意当Tony的舞伴,和他一起参加比赛。两人每天勤加练习。在比赛的时候两人奉献了精彩的表演,获得了第一名。然而Tony认为有一对搭档舞技更好,只是因为他们是西班牙人而只能获二等奖。于是Tony把第一名让给了他们。比赛结束,Tony再次向Stephanie求爱......
  本片带动了当时的迪斯科热潮,Bee Gees的歌也风靡全球。
周末狂热 / 周末夜生活 / 周六夜狂热/周末夜狂热4k 1977.HDR.2160p电影信息
  1. Video
  2. ID : 1
  3. Format : HEVC
  4. Format/Info : High Efficiency Video Coding
  5. Format profile : Main [email protected]@High
  6. HDR format : SMPTE ST 2086, HDR10 compatible
  7. Codec ID : V_MPEGH/ISO/HEVC
  8. Duration : 1 h 58 min
  9. Bit rate : 17.8 Mb/s
  10. Width : 3 840 pixels
  11. Height : 2 076 pixels
  12. Display aspect ratio : 1.85:1
  13. Frame rate mode : Constant
  14. Frame rate : 23.976 (24000/1001) FPS
  15. Color space : YUV
  16. Chroma subsampling : 4:2:0 (Type 2)
  17. Bit depth : 10 bits
  18. Bits/(Pixel*Frame) : 0.093
  19. Stream size : 14.8 GiB (93%)
  20. Title : HDR 2160p WEBRip x265 CRF 17 - by iNTENSO
  21. Default : Yes
  22. Forced : No
  23. Color range : Limited
  24. Color primaries : BT.2020
  25. Transfer characteristics : PQ
  26. Matrix coefficients : BT.2020 non-constant
  27. Mastering display color primaries : Display P3
  28. Mastering display luminance : min: 0.0050 cd/m2, max: 1000 cd/m2
  29. Maximum Content Light Level : 600 cd/m2
  30. Maximum Frame-Average Light Level : 172 cd/m2

  31. Audio #1
  32. ID : 2
  33. Format : AC-3
  34. Format/Info : Audio Coding 3
  35. Commercial name : Dolby Digital
  36. Codec ID : A_AC3
  37. Duration : 1 h 59 min
  38. Bit rate mode : Constant
  39. Bit rate : 640 kb/s
  40. Channel(s) : 6 channels
  41. Channel layout : L R C LFE Ls Rs
  42. Sampling rate : 48.0 kHz
  43. Frame rate : 31.250 FPS (1536 SPF)
  44. Compression mode : Lossy
  45. Delay relative to video : 16 ms
  46. Stream size : 545 MiB (3%)
  47. Title : Italian DD 5.1 BDRip [url=home.php?mod=space&uid=670528]@[/url] 640Kbps - by PirateMKV
  48. Language : Italian
  49. Service kind : Complete Main
  50. Default : Yes
  51. Forced : No

  52. Audio #2
  53. ID : 3
  54. Format : AC-3
  55. Format/Info : Audio Coding 3
  56. Commercial name : Dolby Digital
  57. Codec ID : A_AC3
  58. Duration : 1 h 59 min
  59. Bit rate mode : Constant
  60. Bit rate : 640 kb/s
  61. Channel(s) : 6 channels
  62. Channel layout : L R C LFE Ls Rs
  63. Sampling rate : 48.0 kHz
  64. Frame rate : 31.250 FPS (1536 SPF)
  65. Compression mode : Lossy
  66. Delay relative to video : 16 ms
  67. Stream size : 545 MiB (3%)
  68. Title : English DD 5.1 BDRip @ 640Kbps - by PirateMKV
  69. Language : English
  70. Service kind : Complete Main
  71. Default : No
  72. Forced : No

  73. Text #1
  74. ID : 4
  75. Format : UTF-8
  76. Codec ID : S_TEXT/UTF8
  77. Codec ID/Info : UTF-8 Plain Text
  78. Duration : 1 h 57 min
  79. Bit rate : 46 b/s
  80. Count of elements : 1432
  81. Stream size : 40.6 KiB (0%)
  82. Title : Italian
  83. Language : Italian
  84. Default : No
  85. Forced : No

  86. Text #2
  87. ID : 5
  88. Format : UTF-8
  89. Codec ID : S_TEXT/UTF8
  90. Codec ID/Info : UTF-8 Plain Text
  91. Duration : 1 h 54 min
  92. Bit rate : 73 b/s
  93. Count of elements : 1581
  94. Stream size : 61.3 KiB (0%)
  95. Title : English
  96. Language : English
  97. Default : No
  98. Forced : No

  99. Menu
  100. 00:00:00.000 : :00:00:00.000
  101. 00:06:36.265 : :00:06:39.065
  102. 00:10:32.626 : :00:10:35.426
  103. 00:12:57.313 : :00:13:00.113
  104. 00:20:20.297 : :00:20:23.097
  105. 00:23:15.347 : :00:23:18.147
  106. 00:30:15.308 : :00:30:18.108
  107. 00:34:20.720 : :00:34:23.520
  108. 00:39:10.968 : :00:39:13.768
  109. 00:51:51.311 : :00:51:54.111
  110. 00:58:30.752 : :00:58:33.552
  111. 01:01:44.570 : :01:01:47.370
  112. 01:09:11.183 : :01:09:13.983
  113. 01:11:25.025 : :01:11:27.825
  114. 01:18:40.293 : :01:18:43.093
  115. 01:27:37.205 : :01:27:40.005
  116. 01:32:14.690 : :01:32:17.490
  117. 01:39:54.191 : :01:39:56.991
  118. 01:45:41.163 : :01:45:43.963
  119. 01:50:23.111 : :01:50:25.911
  120. 01:52:30.905 : :01:52:33.705
复制代码

周末狂热 / 周末夜生活 / 周六夜狂热/周末夜狂热4k 1977.HDR.2160p电影下载

周末夜狂热4k 1977.HDR.2160p【15.9 GB】
周末夜狂热 4k.txt (89 Bytes)
回复

使用道具 举报

全部回复2

HSSWWH1969 发表于 2021-10-18 09:59:12

HSSWWH1969 2

2021-10-18 09:59:12

类似霹雳舞?
回复 支持 反对

使用道具 举报

burningbla 发表于 6 天前

burningbla 3

6 天前

这图都看不出是约翰 特拉沃尔塔
回复 支持 反对

使用道具 举报

   发表回复

您需要登录后才可以回帖 登录 | 立即注册

返回列表 本版积分规则

  • 发布新帖

  • 客服/帮助

  • 手机APP

  • 返回顶部