微博 微信

Hao4K影音

电视剧频道
电视剧封面:
电视剧名: 海豹突击队 第五季4k
年  代: 2021  
国  家: 美国
类  别: 动作 战争 剧情 
语  言: 英语
字  幕: 英文原版
上映日期: 2021-10-10
文件格式: mkv    
视频效果: 4K(3840x2160)    
资源大小: 4.42 GB
片  长: -
导  演: 克里斯托弗·查莱克 / J·迈克尔·穆罗 / 大卫·伯伦纳兹
剧情简介: -
海豹突击队 第五季4k SEAL.Team.S05E01.HDR.2160p.WEB.H265-4k美剧信息
  1. Video
  2. ID : 1
  3. Format : HEVC
  4. Format/Info : High Efficiency Video Coding
  5. Format profile : Main 10@L5@High
  6. HDR format : SMPTE ST 2094 App 4, Version 1, HDR10+ Profile B compatible
  7. Codec ID : V_MPEGH/ISO/HEVC
  8. Duration : 43 min 24 s
  9. Bit rate : 14.1 Mb/s
  10. Width : 3 840 pixels
  11. Height : 2 160 pixels
  12. Display aspect ratio : 16:9
  13. Frame rate mode : Constant
  14. Frame rate : 23.976 (24000/1001) FPS
  15. Color space : YUV
  16. Chroma subsampling : 4:2:0 (Type 2)
  17. Bit depth : 10 bits
  18. Bits/(Pixel*Frame) : 0.071
  19. Stream size : 4.28 GiB (97%)
  20. Default : Yes
  21. Forced : No
  22. Color range : Full
  23. Color primaries : BT.2020
  24. Transfer characteristics : PQ
  25. Matrix coefficients : BT.2020 non-constant
  26. Mastering display color primaries : Display P3
  27. Mastering display luminance : min: 0.0001 cd/m2, max: 1000 cd/m2
  28. Maximum Content Light Level : 386 cd/m2
  29. Maximum Frame-Average Light Level : 18 cd/m2

  30. Audio
  31. ID : 2
  32. Format : E-AC-3
  33. Format/Info : Enhanced AC-3
  34. Commercial name : Dolby Digital Plus
  35. Codec ID : A_EAC3
  36. Duration : 43 min 24 s
  37. Bit rate mode : Constant
  38. Bit rate : 192 kb/s
  39. Channel(s) : 6 channels
  40. Channel layout : L R C LFE Ls Rs
  41. Sampling rate : 48.0 kHz
  42. Frame rate : 31.250 FPS (1536 SPF)
  43. Compression mode : Lossy
  44. Stream size : 59.6 MiB (1%)
  45. Language : English
  46. Service kind : Complete Main
  47. Default : Yes
  48. Forced : No

  49. Text
  50. ID : 3
  51. Format : UTF-8
  52. Codec ID : S_TEXT/UTF8
  53. Codec ID/Info : UTF-8 Plain Text
  54. Title : English
  55. Language : English
  56. Default : No
  57. Forced : No
复制代码

海豹突击队 第五季4k SEAL.Team.S05E01.HDR.2160p.WEB.H265-4k美剧下载

海豹突击队 第五季4k SEAL.Team.S05E01.HDR.2160p.WEB.H265【4.42 GB】
[Hao4k]海豹突击队 第五季4k SEAL.Team.S05E01.HDR.2160p.WEB.H265-GGEZ.torrent (22.84 KB)
回复

使用道具 举报

全部回复2

otherboy 发表于 5 天前

otherboy 2

5 天前

今年都上4k啦 厉害厉害
回复 支持 反对

使用道具 举报

tonywang55 发表于 3 天前

tonywang55 3

3 天前

追了好多年,经典
回复 支持 反对

使用道具 举报

   发表回复

您需要登录后才可以回帖 登录 | 立即注册

返回列表 本版积分规则

  • 在线客服

  • 返回顶部