微博 微信

Hao4K影音

电影频道
电影封面:
片  名: Muppets.Haunted.Mansion
电影分类: 喜剧 奇幻 
国  家: 美国 
年  代: 2021年
分 辨 率: 4K(3840x2160)
电影格式: MKV|REMUX 
画质标准: SDR 
音质编码: Dolby Digital Plus Audio 
电影声道: 5.1声道 
帧数/FPS: 23.976 帧
电影语言: 英文原版 
资源大小: 6.97 GB
导  演: 克里克·B·R·沃勒尔
豆瓣评分: 6.8 分
中文字幕: -
剧情简介: On Halloween night, Gonzo is challenged to spend one night in The Haunted Mansion.
Muppets.Haunted.Mansion.2021.2160p.WEB-DL.x265.8bit.SDR.DDP5.1-电影信息
  1. Video
  2. ID : 1
  3. Format : HEVC
  4. Format/Info : High Efficiency Video Coding
  5. Format profile : Main@L5@High
  6. Codec ID : V_MPEGH/ISO/HEVC
  7. Duration : 49 min 50 s
  8. Bit rate : 19.8 Mb/s
  9. Width : 3 840 pixels
  10. Height : 2 160 pixels
  11. Display aspect ratio : 16:9
  12. Frame rate mode : Constant
  13. Frame rate : 23.976 (24000/1001) FPS
  14. Color space : YUV
  15. Chroma subsampling : 4:2:0
  16. Bit depth : 8 bits
  17. Bits/(Pixel*Frame) : 0.099
  18. Stream size : 6.88 GiB (99%)
  19. Writing library : x265 3.5:[Linux][GCC 7.5.0][64 bit] 8bit+10bit+12bit
  20. Encoding settings : cpuid=1111039 / frame-threads=1 / wpp / no-pmode / no-pme / no-psnr / no-ssim / log-level=2 / input-csp=1 / input-res=3840x2160 / interlace=0 / total-frames=0 / level-idc=50 / high-tier=1 / uhd-bd=0 / ref=2 / no-allow-non-conformance / repeat-headers / annexb / no-aud / no-hrd / info / hash=0 / no-temporal-layers / no-open-gop / min-keyint=48 / keyint=48 / gop-lookahead=0 / bframes=4 / b-adapt=0 / b-pyramid / bframe-bias=0 / rc-lookahead=48 / lookahead-slices=8 / scenecut=0 / hist-scenecut=0 / radl=0 / splice / no-intra-refresh / ctu=32 / min-cu-size=8 / no-rect / no-amp / max-tu-size=16 / tu-inter-depth=2 / tu-intra-depth=2 / limit-tu=0 / rdoq-level=1 / dynamic-rd=0.00 / no-ssim-rd / signhide / no-tskip / nr-intra=0 / nr-inter=0 / no-constrained-intra / no-strong-intra-smoothing / max-merge=3 / limit-refs=1 / no-limit-modes / me=1 / subme=2 / merange=44 / temporal-mvp / no-frame-dup / no-hme / weightp / no-weightb / no-analyze-src-pics / deblock=0:0 / no-sao / no-sao-non-deblock / rd=4 / selective-sao=0 / early-skip / rskip / no-fast-intra / no-tskip-fast / no-cu-lossless / b-intra / no-splitrd-skip / rdpenalty=1 / psy-rd=1.60 / psy-rdoq=5.00 / no-rd-refine / no-lossless / cbqpoffs=0 / crqpoffs=0 / rc=abr / bitrate=20000 / qcomp=0.75 / qpstep=4 / stats-write=0 / stats-read=0 / vbv-maxrate=24000 / vbv-bufsize=40000 / vbv-init=0.9 / ipratio=1.40 / pbratio=1.30 / aq-mode=3 / aq-strength=1.00 / no-cutree / zone-count=0 / no-strict-cbr / qg-size=32 / no-rc-grain / qpmax=69 / qpmin=0 / no-const-vbv / sar=1 / overscan=0 / videoformat=5 / range=0 / colorprim=1 / transfer=1 / colormatrix=1 / chromaloc=0 / display-window=0 / cll=0,0 / min-luma=0 / max-luma=255 / log2-max-poc-lsb=8 / vui-timing-info / vui-hrd-info / slices=1 / no-opt-qp-pps / no-opt-ref-list-length-pps / no-multi-pass-opt-rps / scenecut-bias=0.00 / hist-threshold=0.01 / no-opt-cu-delta-qp / no-aq-motion / no-hdr10 / no-hdr10-opt / no-dhdr10-opt / no-idr-recovery-sei / analysis-reuse-level=0 / analysis-save-reuse-level=0 / analysis-load-reuse-level=0 / scale-factor=0 / refine-intra=0 / refine-inter=0 / refine-mv=1 / refine-ctu-distortion=0 / no-limit-sao / ctu-info=0 / no-lowpass-dct / refine-analysis-type=0 / copy-pic=1 / max-ausize-factor=1.0 / no-dynamic-refine / no-single-sei / no-hevc-aq / no-svt / no-field / qp-adaptation-range=1.00 / no-scenecut-aware-qpconformance-window-offsets / right=0 / bottom=0
  21. Default : Yes
  22. Forced : No
  23. Color range : Limited
  24. Color primaries : BT.709
  25. Transfer characteristics : BT.709
  26. Matrix coefficients : BT.709

  27. Audio
  28. ID : 2
  29. Format : E-AC-3
  30. Format/Info : Enhanced AC-3
  31. Commercial name : Dolby Digital Plus
  32. Codec ID : A_EAC3
  33. Duration : 49 min 51 s
  34. Bit rate mode : Constant
  35. Bit rate : 256 kb/s
  36. Channel(s) : 6 channels
  37. Channel layout : L R C LFE Ls Rs
  38. Sampling rate : 48.0 kHz
  39. Frame rate : 31.250 FPS (1536 SPF)
  40. Compression mode : Lossy
  41. Delay relative to video : -2 ms
  42. Stream size : 91.3 MiB (1%)
  43. Language : English
  44. Service kind : Complete Main
  45. Default : Yes
  46. Forced : No

  47. Text #1
  48. ID : 3
  49. Format : UTF-8
  50. Codec ID : S_TEXT/UTF8
  51. Codec ID/Info : UTF-8 Plain Text
  52. Duration : 49 min 18 s
  53. Bit rate : 71 b/s
  54. Count of elements : 826
  55. Stream size : 25.7 KiB (0%)
  56. Language : English
  57. Default : No
  58. Forced : No

  59. Text #2
  60. ID : 4
  61. Format : UTF-8
  62. Codec ID : S_TEXT/UTF8
  63. Codec ID/Info : UTF-8 Plain Text
  64. Duration : 49 min 32 s
  65. Bit rate : 84 b/s
  66. Count of elements : 955
  67. Stream size : 30.6 KiB (0%)
  68. Title : SDH
  69. Language : English
  70. Default : No
  71. Forced : No

  72. Text #3
  73. ID : 5
  74. Format : UTF-8
  75. Codec ID : S_TEXT/UTF8
  76. Codec ID/Info : UTF-8 Plain Text
  77. Duration : 49 min 14 s
  78. Bit rate : 65 b/s
  79. Count of elements : 637
  80. Stream size : 23.5 KiB (0%)
  81. Language : Danish
  82. Default : No
  83. Forced : No

  84. Text #4
  85. ID : 6
  86. Format : UTF-8
  87. Codec ID : S_TEXT/UTF8
  88. Codec ID/Info : UTF-8 Plain Text
  89. Duration : 49 min 4 s
  90. Bit rate : 67 b/s
  91. Count of elements : 765
  92. Stream size : 24.4 KiB (0%)
  93. Language : German
  94. Default : No
  95. Forced : No

  96. Text #5
  97. ID : 7
  98. Format : UTF-8
  99. Codec ID : S_TEXT/UTF8
  100. Codec ID/Info : UTF-8 Plain Text
  101. Duration : 49 min 13 s
  102. Bit rate : 65 b/s
  103. Count of elements : 759
  104. Stream size : 23.5 KiB (0%)
  105. Title : Latin American
  106. Language : Spanish
  107. Default : No
  108. Forced : No

  109. Text #6
  110. ID : 8
  111. Format : UTF-8
  112. Codec ID : S_TEXT/UTF8
  113. Codec ID/Info : UTF-8 Plain Text
  114. Duration : 49 min 13 s
  115. Bit rate : 67 b/s
  116. Count of elements : 762
  117. Stream size : 24.3 KiB (0%)
  118. Language : Spanish
  119. Default : No
  120. Forced : No

  121. Text #7
  122. ID : 9
  123. Format : UTF-8
  124. Codec ID : S_TEXT/UTF8
  125. Codec ID/Info : UTF-8 Plain Text
  126. Duration : 49 min 4 s
  127. Bit rate : 65 b/s
  128. Count of elements : 761
  129. Stream size : 23.7 KiB (0%)
  130. Language : Finnish
  131. Default : No
  132. Forced : No

  133. Text #8
  134. ID : 10
  135. Format : UTF-8
  136. Codec ID : S_TEXT/UTF8
  137. Codec ID/Info : UTF-8 Plain Text
  138. Duration : 49 min 15 s
  139. Bit rate : 59 b/s
  140. Count of elements : 782
  141. Stream size : 21.6 KiB (0%)
  142. Language : French
  143. Default : No
  144. Forced : No

  145. Text #9
  146. ID : 11
  147. Format : UTF-8
  148. Codec ID : S_TEXT/UTF8
  149. Codec ID/Info : UTF-8 Plain Text
  150. Duration : 49 min 13 s
  151. Bit rate : 71 b/s
  152. Count of elements : 755
  153. Stream size : 25.9 KiB (0%)
  154. Language : Italian
  155. Default : No
  156. Forced : No

  157. Text #10
  158. ID : 12
  159. Format : UTF-8
  160. Codec ID : S_TEXT/UTF8
  161. Codec ID/Info : UTF-8 Plain Text
  162. Duration : 49 min 13 s
  163. Bit rate : 73 b/s
  164. Count of elements : 769
  165. Stream size : 26.6 KiB (0%)
  166. Language : Korean
  167. Default : No
  168. Forced : No

  169. Text #11
  170. ID : 13
  171. Format : UTF-8
  172. Codec ID : S_TEXT/UTF8
  173. Codec ID/Info : UTF-8 Plain Text
  174. Duration : 49 min 4 s
  175. Bit rate : 64 b/s
  176. Count of elements : 769
  177. Stream size : 23.3 KiB (0%)
  178. Language : Norwegian Bokmal
  179. Default : No
  180. Forced : No

  181. Text #12
  182. ID : 14
  183. Format : UTF-8
  184. Codec ID : S_TEXT/UTF8
  185. Codec ID/Info : UTF-8 Plain Text
  186. Duration : 49 min 6 s
  187. Bit rate : 59 b/s
  188. Count of elements : 686
  189. Stream size : 21.4 KiB (0%)
  190. Language : Dutch
  191. Default : No
  192. Forced : No

  193. Text #13
  194. ID : 15
  195. Format : UTF-8
  196. Codec ID : S_TEXT/UTF8
  197. Codec ID/Info : UTF-8 Plain Text
  198. Duration : 49 min 4 s
  199. Bit rate : 65 b/s
  200. Count of elements : 760
  201. Stream size : 23.6 KiB (0%)
  202. Language : Polish
  203. Default : No
  204. Forced : No

  205. Text #14
  206. ID : 16
  207. Format : UTF-8
  208. Codec ID : S_TEXT/UTF8
  209. Codec ID/Info : UTF-8 Plain Text
  210. Duration : 49 min 19 s
  211. Bit rate : 69 b/s
  212. Count of elements : 789
  213. Stream size : 25.0 KiB (0%)
  214. Title : Brazilian
  215. Language : Portuguese
  216. Default : No
  217. Forced : No

  218. Text #15
  219. ID : 17
  220. Format : UTF-8
  221. Codec ID : S_TEXT/UTF8
  222. Codec ID/Info : UTF-8 Plain Text
  223. Duration : 49 min 13 s
  224. Bit rate : 65 b/s
  225. Count of elements : 770
  226. Stream size : 23.5 KiB (0%)
  227. Language : Portuguese
  228. Default : No
  229. Forced : No

  230. Text #16
  231. ID : 18
  232. Format : UTF-8
  233. Codec ID : S_TEXT/UTF8
  234. Codec ID/Info : UTF-8 Plain Text
  235. Duration : 49 min 13 s
  236. Bit rate : 66 b/s
  237. Count of elements : 770
  238. Stream size : 24.0 KiB (0%)
  239. Language : Swedish
  240. Default : No
  241. Forced : No

  242. Text #17
  243. ID : 19
  244. Format : UTF-8
  245. Codec ID : S_TEXT/UTF8
  246. Codec ID/Info : UTF-8 Plain Text
  247. Duration : 49 min 13 s
  248. Bit rate : 61 b/s
  249. Count of elements : 768
  250. Stream size : 22.1 KiB (0%)
  251. Title : Simplified
  252. Language : Chinese
  253. Default : No
  254. Forced : No

  255. Text #18
  256. ID : 20
  257. Format : UTF-8
  258. Codec ID : S_TEXT/UTF8
  259. Codec ID/Info : UTF-8 Plain Text
  260. Duration : 49 min 13 s
  261. Bit rate : 59 b/s
  262. Count of elements : 770
  263. Stream size : 21.5 KiB (0%)
  264. Title : Traditional
  265. Language : Chinese
  266. Default : No
  267. Forced : No

  268. Text #19
  269. ID : 21
  270. Format : UTF-8
  271. Codec ID : S_TEXT/UTF8
  272. Codec ID/Info : UTF-8 Plain Text
  273. Duration : 49 min 13 s
  274. Bit rate : 57 b/s
  275. Count of elements : 770
  276. Stream size : 20.8 KiB (0%)
  277. Title : Traditional (Hong Kong)
  278. Language : Chinese
  279. Default : No
  280. Forced : No
复制代码

Muppets.Haunted.Mansion.2021.2160p.WEB-DL.x265.8bit.SDR.DDP5.1-电影下载

Muppets.Haunted.Mansion.2021.2160p.WEB-DL.x265.8bit.SDR.DDP5.1【4k SDR 6.97 GB】
[Hao4k]Muppets.Haunted.Mansion.2021.2160p.WEB-DL.x265.8bit.SDR.DDP5.1-TEPES.torrent (18.08 KB)
回复

使用道具 举报

全部回复5

jm_y0706 发表于 5 天前

jm_y0706 2

5 天前

占位,谢谢楼主!
回复 支持 反对

使用道具 举报

zxlm119 发表于 5 天前

zxlm119 3

5 天前

谢谢楼主!
回复 支持 反对

使用道具 举报

dengke118 发表于 4 天前

dengke118 4

4 天前

谢谢分享,楼主辛苦了!!!
回复 支持 反对

使用道具 举报

hzlzd 发表于 4 天前

hzlzd 5

4 天前

这是短篇吗?那应该不会出国配老?
回复 支持 反对

使用道具 举报

liyun80000 发表于 4 天前

liyun80000 6

4 天前

很好的电影,感谢分享
回复 支持 反对

使用道具 举报

   发表回复

您需要登录后才可以回帖 登录 | 立即注册

返回列表 本版积分规则

  • 在线客服

  • 返回顶部