微博 微信 手机APP

Hao4K影音

电视剧频道
电视剧封面:
电视剧名: Shark Squad Season
年  代: 2018  
国  家: 美国
类  别: 纪录片 
语  言: 英语
字  幕: 英文原版
上映日期: 2018-07-13
文件格式: mkv    
视频效果: 4K(3840x2160)    
资源大小: 9.51 GB
片  长: 48 分钟
导  演: Ross Huguet
剧情简介: Around the world, a group of scientists are risking their lives to come face-to-face with the most fearsome sharks in the ocean. From researchers in Guadalupe attempting to attach a camera to a great white, to a dedicated \'shark lab\' in the Bahamas investigating shark migration and overall intelligence, join a thrilling journey into the hidden habitats of these premier marine predators.
Shark.Squad.S01.2160p.PMTP.WEBRip.AAC2.0.x265纪录片信息
  1. Video
  2. ID : 1
  3. Format : HEVC
  4. Format/Info : High Efficiency Video Coding
  5. Format profile : Main@L5@Main
  6. Codec ID : V_MPEGH/ISO/HEVC
  7. Duration : 48 min 1 s
  8. Bit rate : 9 335 kb/s
  9. Width : 3 876 pixels
  10. Height : 2 160 pixels
  11. Display aspect ratio : 16:9
  12. Frame rate mode : Constant
  13. Frame rate : 23.976 (24000/1001) FPS
  14. Color space : YUV
  15. Chroma subsampling : 4:2:0
  16. Bit depth : 8 bits
  17. Bits/(Pixel*Frame) : 0.047
  18. Stream size : 3.13 GiB (99%)
  19. Writing library : x265 3.4:[Linux][GCC 9.3.0][64 bit] 8bit
  20. Encoding settings : cpuid=1111039 / frame-threads=3 / wpp / no-pmode / no-pme / no-psnr / no-ssim / log-level=2 / input-csp=1 / input-res=3876x2160 / interlace=0 / total-frames=0 / level-idc=0 / high-tier=1 / uhd-bd=0 / ref=4 / no-allow-non-conformance / repeat-headers / annexb / no-aud / no-hrd / info / hash=0 / no-temporal-layers / open-gop / min-keyint=48 / keyint=48 / gop-lookahead=0 / bframes=4 / b-adapt=2 / b-pyramid / bframe-bias=0 / rc-lookahead=25 / lookahead-slices=4 / scenecut=0 / hist-scenecut=0 / radl=0 / no-splice / no-intra-refresh / ctu=64 / min-cu-size=8 / rect / no-amp / max-tu-size=32 / tu-inter-depth=1 / tu-intra-depth=1 / limit-tu=0 / rdoq-level=2 / dynamic-rd=0.00 / no-ssim-rd / signhide / no-tskip / nr-intra=0 / nr-inter=0 / no-constrained-intra / strong-intra-smoothing / max-merge=3 / limit-refs=3 / limit-modes / me=3 / subme=3 / merange=57 / temporal-mvp / no-frame-dup / no-hme / weightp / no-weightb / no-analyze-src-pics / deblock=0:0 / sao / no-sao-non-deblock / rd=4 / selective-sao=4 / no-early-skip / rskip / no-fast-intra / no-tskip-fast / no-cu-lossless / no-b-intra / no-splitrd-skip / rdpenalty=0 / psy-rd=2.00 / psy-rdoq=1.00 / no-rd-refine / no-lossless / cbqpoffs=0 / crqpoffs=0 / rc=abr / bitrate=9505 / qcomp=0.60 / qpstep=4 / stats-write=0 / stats-read=2 / cplxblur=20.0 / qblur=0.5 / vbv-maxrate=11406 / vbv-bufsize=9505 / vbv-init=0.8 / ipratio=1.40 / pbratio=1.30 / aq-mode=2 / aq-strength=1.00 / cutree / zone-count=0 / no-strict-cbr / qg-size=32 / no-rc-grain / qpmax=69 / qpmin=0 / no-const-vbv / sar=255 / sar-width / : / sar-height=34560:34561 / overscan=0 / videoformat=5 / range=0 / colorprim=2 / transfer=2 / colormatrix=2 / chromaloc=0 / display-window=0 / cll=0,0 / min-luma=0 / max-luma=255 / log2-max-poc-lsb=8 / vui-timing-info / vui-hrd-info / slices=1 / no-opt-qp-pps / no-opt-ref-list-length-pps / no-multi-pass-opt-rps / scenecut-bias=0.05 / hist-threshold=0.01 / no-opt-cu-delta-qp / no-aq-motion / no-hdr10 / no-hdr10-opt / no-dhdr10-opt / no-idr-recovery-sei / analysis-reuse-level=0 / analysis-save-reuse-level=0 / analysis-load-reuse-level=0 / scale-factor=0 / refine-intra=0 / refine-inter=0 / refine-mv=1 / refine-ctu-distortion=0 / no-limit-sao / ctu-info=0 / no-lowpass-dct / refine-analysis-type=0 / copy-pic=1 / max-ausize-factor=1.0 / no-dynamic-refine / no-single-sei / no-hevc-aq / no-svt / no-field / qp-adaptation-range=1.00 / no-scenecut-aware-qpconformance-window-offsets / right=0 / bottom=0 / decoder-max-rate=0
  21. Default : Yes
  22. Forced : No
  23. Color range : Limited

  24. Audio
  25. ID : 2
  26. Format : AAC LC
  27. Format/Info : Advanced Audio Codec Low Complexity
  28. Codec ID : A_AAC-2
  29. Duration : 48 min 1 s
  30. Bit rate : 125 kb/s
  31. Channel(s) : 2 channels
  32. Channel layout : L R
  33. Sampling rate : 48.0 kHz
  34. Frame rate : 46.875 FPS (1024 SPF)
  35. Compression mode : Lossy
  36. Stream size : 42.8 MiB (1%)
  37. Language : English
  38. Default : Yes
  39. Forced : No

  40. Text
  41. ID : 3
  42. Format : UTF-8
  43. Codec ID : S_TEXT/UTF8
  44. Codec ID/Info : UTF-8 Plain Text
  45. Duration : 47 min 52 s
  46. Bit rate : 83 b/s
  47. Count of elements : 772
  48. Stream size : 29.4 KiB (0%)
  49. Language : English
  50. Default : No
  51. Forced : No
复制代码

Shark.Squad.S01.2160p.PMTP.WEBRip.AAC2.0.x265纪录片下载

Shark.Squad.S01.2160p.PMTP.WEBRip.AAC2.0.x265【9.51 GB】
[Hao4k]Shark.Squad.S01.2160p.PMTP.WEBRip.AAC2.0.x265-NTb.torrent (24.57 KB)
回复

使用道具 举报

全部回复2

强哥xu 发表于 2021-10-13 21:32:12 Hao4K手机版

强哥xu 2

2021-10-13 21:32:12

这部没有黄石公园好看。
回复 支持 反对

使用道具 举报

wangyi887799 发表于 昨天 13:55

wangyi887799 3

昨天 13:55

没看过,收藏
回复 支持 反对

使用道具 举报

   发表回复

您需要登录后才可以回帖 登录 | 立即注册

返回列表 本版积分规则

  • 发布新帖

  • 客服/帮助

  • 手机APP

  • 返回顶部