微博 微信

Hao4K影音

电视剧频道
电视剧封面:
电视剧名: 成瘾剂量4k
年  代: 2021  
国  家: 美国
类  别: 剧情 
语  言: 英语
字  幕: 英文原版
上映日期: 2021-10-13
文件格式: mkv    
视频效果: 4K(3840x2160)    
资源大小: 3.19 GB
片  长: -
导  演: 巴瑞·莱文森
剧情简介: 迈克尔·基顿将主演Hulu 8集限定剧《成瘾剂量》(Dopesick,暂译)。丹尼·斯特朗([规则改变])担任剧集运作人与编剧,巴瑞·莱文森([死亡医生])执导。该剧根据Beth Macy撰写的同名畅销书改编,基顿扮演老派医生塞缪尔·芬尼克斯,他以仁慈和同情心对待自己的工作,但他发现自己陷入了大制药公司致命的秘密之中。
成瘾剂量4k Dopesick.S01E01.2160p.HULU.WEB-DL.x265.10bit.HDR10Plus.DDP5.1-美剧信息
  1. Video
  2. ID : 1
  3. Format : HEVC
  4. Format/Info : High Efficiency Video Coding
  5. Format profile : Main 10@L5.1@Main
  6. HDR format : Dolby Vision, Version 1.0, dvhe.08.06, BL+RPU, HDR10 compatible / SMPTE ST 2094 App 4, Version 1, HDR10+ Profile B compatible
  7. Codec ID : V_MPEGH/ISO/HEVC
  8. Duration : 1 h 2 min
  9. Bit rate : 6 924 kb/s
  10. Width : 3 840 pixels
  11. Height : 2 160 pixels
  12. Display aspect ratio : 16:9
  13. Frame rate mode : Constant
  14. Frame rate : 24.000 FPS
  15. Color space : YUV
  16. Chroma subsampling : 4:2:0 (Type 2)
  17. Bit depth : 10 bits
  18. Bits/(Pixel*Frame) : 0.035
  19. Stream size : 3.01 GiB (95%)
  20. Default : Yes
  21. Forced : No
  22. Color range : Limited
  23. Color primaries : BT.2020
  24. Transfer characteristics : PQ
  25. Matrix coefficients : BT.2020 non-constant
  26. Mastering display color primaries : Display P3
  27. Mastering display luminance : min: 0.0001 cd/m2, max: 1000 cd/m2
  28. Maximum Content Light Level : 1043 cd/m2
  29. Maximum Frame-Average Light Level : 197 cd/m2

  30. Audio
  31. ID : 2
  32. Format : E-AC-3
  33. Format/Info : Enhanced AC-3
  34. Commercial name : Dolby Digital Plus
  35. Codec ID : A_EAC3
  36. Duration : 1 h 2 min
  37. Bit rate mode : Constant
  38. Bit rate : 256 kb/s
  39. Channel(s) : 6 channels
  40. Channel layout : L R C LFE Ls Rs
  41. Sampling rate : 48.0 kHz
  42. Frame rate : 31.250 FPS (1536 SPF)
  43. Compression mode : Lossy
  44. Stream size : 114 MiB (3%)
  45. Language : English
  46. Service kind : Complete Main
  47. Default : Yes
  48. Forced : No

  49. Text #1
  50. ID : 3
  51. Format : UTF-8
  52. Codec ID : S_TEXT/UTF8
  53. Codec ID/Info : UTF-8 Plain Text
  54. Title : English
  55. Language : English
  56. Default : No
  57. Forced : No

  58. Text #2
  59. ID : 4
  60. Format : UTF-8
  61. Codec ID : S_TEXT/UTF8
  62. Codec ID/Info : UTF-8 Plain Text
  63. Title : Spanish
  64. Language : Spanish
  65. Default : No
  66. Forced : No
复制代码

成瘾剂量4k Dopesick.S01E01.2160p.HULU.WEB-DL.x265.10bit.HDR10Plus.DDP5.1-美剧下载

成瘾剂量4k Dopesick.S01E01.2160p.HULU.WEB-DL.x265.10bit.HDR10Plus.DDP5.1【3.19 GB】
[Hao4k]成瘾剂量4k Dopesick.S01E01.2160p.HULU.WEB-DL.x265.10bit.HDR10Plus.DDP5.1-GGEZ.torrent (16.59 KB)
回复

使用道具 举报

   发表回复

您需要登录后才可以回帖 登录 | 立即注册

返回列表 本版积分规则

  • 在线客服

  • 返回顶部