微博 微信 手机APP

Hao4K影音

电影频道
电影封面:
片  名: 警察局4K
电影分类: 动作 惊悚 
国  家: 美国 
年  代: 2021年
分 辨 率: 4K(3840x2160)
电影格式: MKV|REMUX 
画质标准: HDR10 
音质编码: Dolby Digital Plus Audio 
电影声道: 5.1声道 
帧数/FPS: 23.976 帧
电影语言: 英文原版 
资源大小: 11.71 GB
导  演: 乔·卡纳汉
豆瓣评分: 6.5 分
中文字幕: -
剧情简介: 讲述一个小镇警察局成为三个人之间不可思议的战场——职业杀手、聪明的新手女警、除了酒吧找不到其他避难所的诈骗犯。
正义陷落 / 高玩殺手/警察局4K.Copshop.2021.2160p.AMZN.WEB-DL.x265.10bit.HDR10Plus.DDP5.1-4k电影信息
  1. Video
  2. ID : 1
  3. Format : HEVC
  4. Format/Info : High Efficiency Video Coding
  5. Format profile : Main 10@L5@Main
  6. HDR format : SMPTE ST 2094 App 4, Version 1, HDR10+ Profile B compatible
  7. Codec ID : V_MPEGH/ISO/HEVC
  8. Duration : 1 h 47 min
  9. Bit rate : 14.9 Mb/s
  10. Width : 3 840 pixels
  11. Height : 1 600 pixels
  12. Display aspect ratio : 2.40:1
  13. Frame rate mode : Constant
  14. Frame rate : 23.976 (24000/1001) FPS
  15. Color space : YUV
  16. Chroma subsampling : 4:2:0
  17. Bit depth : 10 bits
  18. Bits/(Pixel*Frame) : 0.101
  19. Stream size : 11.2 GiB (96%)
  20. Default : Yes
  21. Forced : No
  22. Color range : Limited
  23. Color primaries : BT.2020
  24. Transfer characteristics : PQ
  25. Matrix coefficients : BT.2020 non-constant
  26. Mastering display color primaries : BT.2020
  27. Mastering display luminance : min: 0.0050 cd/m2, max: 1000 cd/m2
  28. Maximum Content Light Level : 999 cd/m2
  29. Maximum Frame-Average Light Level : 213 cd/m2

  30. Audio
  31. ID : 2
  32. Format : E-AC-3
  33. Format/Info : Enhanced AC-3
  34. Commercial name : Dolby Digital Plus
  35. Codec ID : A_EAC3
  36. Duration : 1 h 47 min
  37. Bit rate mode : Constant
  38. Bit rate : 640 kb/s
  39. Channel(s) : 6 channels
  40. Channel layout : L R C LFE Ls Rs
  41. Sampling rate : 48.0 kHz
  42. Frame rate : 31.250 FPS (1536 SPF)
  43. Compression mode : Lossy
  44. Stream size : 493 MiB (4%)
  45. Title : English
  46. Language : English
  47. Service kind : Complete Main
  48. Default : No
  49. Forced : No

  50. Text #1
  51. ID : 3
  52. Format : UTF-8
  53. Codec ID : S_TEXT/UTF8
  54. Codec ID/Info : UTF-8 Plain Text
  55. Duration : 1 h 46 min
  56. Bit rate : 71 b/s
  57. Count of elements : 2178
  58. Stream size : 55.5 KiB (0%)
  59. Title : English [SDH]
  60. Language : English
  61. Default : No
  62. Forced : No

  63. Text #2
  64. ID : 4
  65. Format : UTF-8
  66. Codec ID : S_TEXT/UTF8
  67. Codec ID/Info : UTF-8 Plain Text
  68. Duration : 1 h 41 min
  69. Bit rate : 58 b/s
  70. Count of elements : 1651
  71. Stream size : 43.4 KiB (0%)
  72. Title : English
  73. Language : English
  74. Default : No
  75. Forced : No
复制代码

正义陷落 / 高玩殺手/警察局4K.Copshop.2021.2160p.AMZN.WEB-DL.x265.10bit.HDR10Plus.DDP5.1-4K电影下载

警察局4K.Copshop.2021.2160p.AMZN.WEB-DL.x265.10bit.HDR10Plus.DDP5.1 【4K  HDR 11.71 GB】
[Hao4K]警察局4K.Copshop.2021.2160p.AMZN.WEB-DL.x265.10bit.HDR10Plus.DDP5.1-CM.torrent (15.28 KB, 售价: 3 个K币)
回复

使用道具 举报

全部回复9

老鼠响叮当燚燚 发表于 2021-10-14 19:01:44

老鼠响叮当燚燚 2

2021-10-14 19:01:44

谢谢楼主发片
回复 支持 反对

使用道具 举报

simonky1009 发表于 2021-10-15 08:10:28

simonky1009 3

2021-10-15 08:10:28

谢谢楼主发片
回复 支持 反对

使用道具 举报

simonky1009 发表于 2021-10-15 08:11:09

simonky1009 4

2021-10-15 08:11:09

OK  多謝樓主的無私貢獻
回复 支持 反对

使用道具 举报

Stephen1218 发表于 2021-10-17 11:07:19

Stephen1218 5

2021-10-17 11:07:19

这个有字幕链接吗  楼主
回复 支持 反对

使用道具 举报

mu_g 发表于 2021-10-17 14:43:40

mu_g 6

2021-10-17 14:43:40

谢谢楼主分享
回复 支持 反对

使用道具 举报

qzy4057 发表于 2021-10-17 18:01:34

qzy4057 7

2021-10-17 18:01:34

OK  多謝樓主的無私貢獻
回复 支持 反对

使用道具 举报

364578810 发表于 2021-10-18 20:28:31

364578810 8

2021-10-18 20:28:31

字幕呢????
回复 支持 反对

使用道具 举报

cjh623624 发表于 2021-10-19 21:41:10

cjh623624 9

2021-10-19 21:41:10

这片子怎么会没有字幕组做字幕呢次?
回复 支持 反对

使用道具 举报

lqsong 发表于 6 天前

lqsong 10

6 天前

谢谢楼主分享
回复 支持 反对

使用道具 举报

   发表回复

您需要登录后才可以回帖 登录 | 立即注册

返回列表 本版积分规则

  • 发布新帖

  • 客服/帮助

  • 手机APP

  • 返回顶部