微博 微信

Hao4K影音

电影频道
电影封面:
片  名: 16击4k
电影分类: 剧情 
国  家: 美国 
年  代: 2019年
分 辨 率: 4K(3840x2160)
电影格式: MKV|REMUX 
画质标准: SDR 
音质编码: Dolby Digital Audio 
电影声道: 5.1声道 
帧数/FPS: 23.976 帧
电影语言: 英文原版 
资源大小: 10.50 GB
导  演: 里克·罗利
豆瓣评分: 7.1 分
中文字幕: -
剧情简介: A documentary examining the 2014 shooting of 17-year-old Laquan McDonald by Chicago police officer Jason Van Dyke and the cover-up that ensued. After the police initially declared the shooting as justified, journalists and activists fought for footage of the event to be released, sending the Chicago Police Department and local Chicago government officials into upheaval as the community demanded justice.
16击4k 16.Shots.2019.2160p.WEB-DL.x265.8bit.SDR.DD5.1-4k电影信息
  1. Video
  2. ID : 1
  3. Format : HEVC
  4. Format/Info : High Efficiency Video Coding
  5. Format profile : Main@L5@Main
  6. Codec ID : V_MPEGH/ISO/HEVC
  7. Duration : 1 h 39 min
  8. Bit rate : 14.7 Mb/s
  9. Width : 3 840 pixels
  10. Height : 2 160 pixels
  11. Display aspect ratio : 16:9
  12. Frame rate mode : Constant
  13. Frame rate : 23.976 (24000/1001) FPS
  14. Color space : YUV
  15. Chroma subsampling : 4:2:0
  16. Bit depth : 8 bits
  17. Bits/(Pixel*Frame) : 0.074
  18. Stream size : 10.2 GiB (97%)
  19. Writing library : x265 2.8hy:[Linux][GCC 7.5.0][64 bit] 8bit
  20. Encoding settings : cpuid=1111039 / frame-threads=1 / no-wpp / no-pmode / no-pme / no-psnr / no-ssim / log-level=2 / input-csp=1 / input-res=3840x2160 / interlace=0 / total-frames=0 / level-idc=0 / high-tier=1 / uhd-bd=0 / ref=4 / no-allow-non-conformance / repeat-headers / annexb / aud / hrd / info / hash=0 / no-temporal-layers / no-open-gop / min-keyint=48 / keyint=48 / gop-lookahead=0 / bframes=4 / b-adapt=2 / b-pyramid / bframe-bias=0 / rc-lookahead=48 / lookahead-slices=4 / scenecut=0 / radl=0 / no-intra-refresh / ctu=64 / min-cu-size=8 / rect / no-amp / max-tu-size=32 / tu-inter-depth=1 / tu-intra-depth=1 / limit-tu=0 / rdoq-level=2 / dynamic-rd=0.00 / no-ssim-rd / signhide / no-tskip / nr-intra=100 / nr-inter=200 / no-constrained-intra / strong-intra-smoothing / max-merge=3 / limit-refs=3 / limit-modes / me=3 / subme=3 / merange=57 / temporal-mvp / weightp / no-weightb / no-analyze-src-pics / deblock=0:0 / no-sao / no-sao-non-deblock / rd=4 / no-early-skip / no-rskip / no-fast-intra / no-tskip-fast / no-cu-lossless / no-b-intra / no-splitrd-skip / rdpenalty=0 / psy-rd=0.00 / psy-rdoq=10.00 / no-rd-refine / no-lossless / cbqpoffs=0 / crqpoffs=0 / rc=abr / bitrate=15000 / qcomp=0.60 / qpstep=1 / stats-write=0 / stats-read=2 / cplxblur=20.0 / qblur=0.5 / vbv-maxrate=18000 / vbv-bufsize=12000 / vbv-init=0.6 / vbv-end=0.6 / vbv-end-fr-adj=0.0 / ipratio=1.10 / pbratio=1.00 / aq-mode=0 / aq-strength=0.00 / no-cutree / zone-count=0 / no-strict-cbr / qg-size=32 / rc-grain / qpmax=69 / qpmin=0 / const-vbv / sar=0 / overscan=0 / videoformat=5 / range=0 / colorprim=1 / transfer=1 / colormatrix=1 / chromaloc=0 / display-window=0 / max-cll=0,0 / min-luma=0 / max-luma=255 / log2-max-poc-lsb=8 / vui-timing-info / vui-hrd-info / no-concatenation / slices=1 / no-opt-qp-pps / no-opt-ref-list-length-pps / no-multi-pass-opt-rps / scenecut-bias=0.05 / no-opt-cu-delta-qp / no-aq-motion / no-hdr / no-hdr-opt / no-dhdr10-opt / no-idr-recovery-sei / analysis-reuse-level=5 / scale-factor=0 / refine-intra=0 / refine-inter=0 / refine-mv=0 / no-limit-sao / ctu-info=0 / no-lowpass-dct / refine-mv-type=0 / copy-pic=1 / max-ausize-factor=1.0 / no-dynamic-refine / no-single-sei
  21. Language : English
  22. Default : Yes
  23. Forced : No
  24. Color range : Limited
  25. Color primaries : BT.709
  26. Transfer characteristics : BT.709
  27. Matrix coefficients : BT.709

  28. Audio
  29. ID : 2
  30. Format : AC-3
  31. Format/Info : Audio Coding 3
  32. Commercial name : Dolby Digital
  33. Codec ID : A_AC3
  34. Duration : 1 h 39 min
  35. Bit rate mode : Constant
  36. Bit rate : 384 kb/s
  37. Channel(s) : 6 channels
  38. Channel layout : L R C LFE Ls Rs
  39. Sampling rate : 48.0 kHz
  40. Frame rate : 31.250 FPS (1536 SPF)
  41. Compression mode : Lossy
  42. Stream size : 274 MiB (3%)
  43. Language : English
  44. Service kind : Complete Main
  45. Default : Yes
  46. Forced : No

  47. Text
  48. ID : 3
  49. Format : UTF-8
  50. Codec ID : S_TEXT/UTF8
  51. Codec ID/Info : UTF-8 Plain Text
  52. Duration : 1 h 38 min
  53. Bit rate : 87 b/s
  54. Count of elements : 1709
  55. Stream size : 62.7 KiB (0%)
  56. Language : English
  57. Default : No
  58. Forced : No
复制代码

16击4k 16.Shots.2019.2160p.WEB-DL.x265.8bit.SDR.DD5.1-4k电影下载

16击4k 16.Shots.2019.2160p.WEB-DL.x265.8bit.SDR.DD5.1【4k SDR 10.50 GB 】
[Hao4k]16击4k 16.Shots.2019.2160p.WEB-DL.x265.8bit.SDR.DD5.1-TEPES.torrent (13.74 KB, 售价: 2 个K币)
回复

使用道具 举报

全部回复2

强哥xu 发表于 前天 07:59 Hao4K手机版

强哥xu 2

前天 07:59

这不就是改编于2014年美国芝加哥警察打死17岁的拉克.麦克唐纳的纪录片吗。
回复 支持 反对

使用道具 举报

yzguan 发表于 昨天 08:45

yzguan 3

昨天 08:45

这个在豆瓣显示还没有评分?
回复 支持 反对

使用道具 举报

   发表回复

您需要登录后才可以回帖 登录 | 立即注册

返回列表 本版积分规则

  • 在线客服

  • 返回顶部