微博 微信 手机APP

Hao4K影音

电影频道
电影封面:
片  名: 无声的抵抗4k
电影分类: 战争 剧情 历史 传记 
国  家: 美国 法国 德国 
年  代: 2020年
分 辨 率: 4K(3840x2160)
电影格式: MKV|REMUX 
画质标准: SDR 
音质编码: DTS-HD Master Audio 
电影声道: 5.1声道 
帧数/FPS: 23.976 帧
电影语言: 英文原版 
资源大小: 14.81 GB
导  演: 乔纳森·雅库博维奇
豆瓣评分: 6.7 分
中文字幕: -
剧情简介: 从启发迈克杰克逊的“太空漫步”到创造Bip小丑的经典形象,法国传奇默剧大师马歇·马叟(Marcel Marceau)对流行文化的影响空前深远。而他年轻时一段鲜为人知的地下战士经历,也如他的艺术一样非凡伟大。
  二战时法国被占领期间,马歇通过他善于伪造的天赋以及幽默感,在许多生死攸关的地下抗战任务中起到了至关重要的作用,他与兄弟们并肩作战,成功从纳粹手里解救了无数孩子,将他们穿过阿尔卑斯山送到瑞士。马歇的英雄行为也感动和激励了成千上万的人们。
无声救援(台) / 无声的反抗 / 抵抗/无声的抵抗4k Resistance.2020.2160p.WEB-DL.x265.8bit.SDR.DTS-HD.MA.5.1电影信息
  1. Video
  2. ID : 1
  3. Format : HEVC
  4. Format/Info : High Efficiency Video Coding
  5. Format profile : Main@L5@Main
  6. Codec ID : V_MPEGH/ISO/HEVC
  7. Duration : 2 h 1 min
  8. Bit rate : 14.5 Mb/s
  9. Width : 3 840 pixels
  10. Height : 2 160 pixels
  11. Display aspect ratio : 16:9
  12. Frame rate mode : Constant
  13. Frame rate : 23.976 (24000/1001) FPS
  14. Color space : YUV
  15. Chroma subsampling : 4:2:0
  16. Bit depth : 8 bits
  17. Bits/(Pixel*Frame) : 0.073
  18. Stream size : 12.2 GiB (83%)
  19. Writing library : x265 3.4hy:[Linux][GCC 7.5.0][64 bit] 8bit
  20. Encoding settings : cpuid=1111039 / frame-threads=2 / wpp / no-pmode / no-pme / no-psnr / no-ssim / log-level=2 / input-csp=1 / input-res=3840x2160 / interlace=0 / total-frames=0 / level-idc=0 / high-tier=1 / uhd-bd=0 / ref=4 / no-allow-non-conformance / repeat-headers / annexb / aud / hrd / info / hash=0 / no-temporal-layers / no-open-gop / min-keyint=48 / keyint=48 / gop-lookahead=0 / bframes=4 / b-adapt=2 / b-pyramid / bframe-bias=0 / rc-lookahead=48 / lookahead-slices=4 / scenecut=0 / hist-scenecut=0 / radl=0 / no-splice / no-intra-refresh / ctu=64 / min-cu-size=8 / rect / no-amp / max-tu-size=32 / tu-inter-depth=1 / tu-intra-depth=1 / limit-tu=0 / rdoq-level=2 / dynamic-rd=0.00 / no-ssim-rd / signhide / no-tskip / nr-intra=100 / nr-inter=200 / no-constrained-intra / strong-intra-smoothing / max-merge=3 / limit-refs=3 / limit-modes / me=3 / subme=3 / merange=57 / temporal-mvp / no-frame-dup / no-hme / weightp / no-weightb / no-analyze-src-pics / deblock=0:0 / no-sao / no-sao-non-deblock / rd=4 / selective-sao=0 / no-early-skip / no-rskip / no-fast-intra / no-tskip-fast / no-cu-lossless / no-b-intra / no-splitrd-skip / rdpenalty=0 / psy-rd=0.00 / psy-rdoq=10.00 / no-rd-refine / no-lossless / cbqpoffs=0 / crqpoffs=0 / rc=abr / bitrate=15000 / qcomp=0.60 / qpstep=1 / stats-write=0 / stats-read=2 / cplxblur=20.0 / qblur=0.5 / vbv-maxrate=18000 / vbv-bufsize=12000 / vbv-init=0.6 / vbv-end=0.6 / vbv-end-fr-adj=0.0 / ipratio=1.10 / pbratio=1.00 / aq-mode=0 / aq-strength=0.00 / no-cutree / zone-count=0 / no-strict-cbr / qg-size=32 / rc-grain / qpmax=69 / qpmin=0 / const-vbv / sar=0 / overscan=0 / videoformat=5 / range=0 / colorprim=1 / transfer=1 / colormatrix=1 / chromaloc=0 / display-window=0 / cll=0,0 / min-luma=0 / max-luma=255 / log2-max-poc-lsb=8 / vui-timing-info / vui-hrd-info / no-concatenation / slices=1 / no-opt-qp-pps / no-opt-ref-list-length-pps / no-multi-pass-opt-rps / scenecut-bias=0.05 / hist-threshold=0.01 / no-opt-cu-delta-qp / no-aq-motion / no-hdr10 / no-hdr10-opt / no-dhdr10-opt / no-idr-recovery-sei / analysis-reuse-level=0 / analysis-save-reuse-level=0 / analysis-load-reuse-level=0 / scale-factor=0 / refine-intra=0 / refine-inter=0 / refine-mv=1 / refine-ctu-distortion=0 / no-limit-sao / ctu-info=0 / no-lowpass-dct / refine-analysis-type=0 / copy-pic=1 / max-ausize-factor=1.0 / no-dynamic-refine / no-single-sei / no-hevc-aq / no-svt / no-field / qp-adaptation-range=1.00 / no-scenecut-aware-qpconformance-window-offsets / right=0 / bottom=0 / decoder-max-rate=0
  21. Language : English
  22. Default : Yes
  23. Forced : No
  24. Color range : Limited
  25. Color primaries : BT.709
  26. Transfer characteristics : BT.709
  27. Matrix coefficients : BT.709

  28. Audio #1
  29. ID : 2
  30. Format : DTS XLL
  31. Format/Info : Digital Theater Systems
  32. Commercial name : DTS-HD Master Audio
  33. Codec ID : A_DTS
  34. Duration : 2 h 1 min
  35. Bit rate mode : Variable
  36. Bit rate : 2 612 kb/s
  37. Channel(s) : 6 channels
  38. Channel layout : C L R Ls Rs LFE
  39. Sampling rate : 48.0 kHz
  40. Frame rate : 93.750 FPS (512 SPF)
  41. Bit depth : 24 bits
  42. Compression mode : Lossless
  43. Delay relative to video : 5 ms
  44. Stream size : 2.21 GiB (15%)
  45. Title : DTS-HD MA 5.1
  46. Language : English
  47. Default : Yes
  48. Forced : No

  49. Audio #2
  50. ID : 3
  51. Format : AC-3
  52. Format/Info : Audio Coding 3
  53. Commercial name : Dolby Digital
  54. Codec ID : A_AC3
  55. Duration : 2 h 1 min
  56. Bit rate mode : Constant
  57. Bit rate : 384 kb/s
  58. Channel(s) : 6 channels
  59. Channel layout : L R C LFE Ls Rs
  60. Sampling rate : 48.0 kHz
  61. Frame rate : 31.250 FPS (1536 SPF)
  62. Compression mode : Lossy
  63. Stream size : 333 MiB (2%)
  64. Language : English
  65. Service kind : Complete Main
  66. Default : No
  67. Forced : No

  68. Text #1
  69. ID : 4
  70. Format : UTF-8
  71. Codec ID : S_TEXT/UTF8
  72. Codec ID/Info : UTF-8 Plain Text
  73. Duration : 1 h 59 min
  74. Bit rate : 38 b/s
  75. Count of elements : 1252
  76. Stream size : 33.9 KiB (0%)
  77. Title : SRT
  78. Language : English
  79. Default : Yes
  80. Forced : No

  81. Text #2
  82. ID : 5
  83. Format : PGS
  84. Muxing mode : zlib
  85. Codec ID : S_HDMV/PGS
  86. Codec ID/Info : Picture based subtitle format used on BDs/HD-DVDs
  87. Duration : 1 h 59 min
  88. Bit rate : 20.9 kb/s
  89. Count of elements : 1838
  90. Stream size : 17.8 MiB (0%)
  91. Language : English
  92. Default : No
  93. Forced : No

  94. Text #3
  95. ID : 6
  96. Format : PGS
  97. Muxing mode : zlib
  98. Codec ID : S_HDMV/PGS
  99. Codec ID/Info : Picture based subtitle format used on BDs/HD-DVDs
  100. Duration : 1 h 55 min
  101. Bit rate : 21.6 kb/s
  102. Count of elements : 1711
  103. Stream size : 17.9 MiB (0%)
  104. Language : Spanish
  105. Default : No
  106. Forced : No

  107. Menu
  108. 00:00:00.000 : Chapter 1
  109. 00:10:10.193 : Chapter 2
  110. 00:22:19.964 : Chapter 3
  111. 00:32:50.302 : Chapter 4
  112. 00:40:27.175 : Chapter 5
  113. 00:51:29.920 : Chapter 6
  114. 01:00:17.239 : Chapter 7
  115. 01:12:19.669 : Chapter 8
  116. 01:21:58.038 : Chapter 9
  117. 01:33:52.377 : Chapter 10
  118. 01:46:57.119 : Chapter 11
  119. 01:55:20.330 : Chapter 12
复制代码

无声救援(台) / 无声的反抗 / 抵抗/无声的抵抗4k Resistance.2020.2160p.WEB-DL.x265.8bit.SDR.DTS-HD.MA.5.1电影下载

无声的抵抗4k Resistance.2020.2160p.WEB-DL.x265.8bit.SDR.DTS-HD.MA.5.1【4k SDR 14.81 GB】
[Hao4k]无声的抵抗4k Resistance.2020.2160p.WEB-DL.x265.8bit.SDR.DTS-HD.MA.5.1-NOGRP.torrent (19.16 KB, 售价: 2 个K币)
回复

使用道具 举报

全部回复4

wangshuo1975 发表于 2021-10-15 11:15:51

wangshuo1975 2

2021-10-15 11:15:51

谢谢分享,很棒的片子。
回复 支持 反对

使用道具 举报

bbgrnnji 发表于 2021-10-15 11:52:48

bbgrnnji 3

2021-10-15 11:52:48

反抗就是要没声音
回复 支持 反对

使用道具 举报

liyun80000 发表于 2021-10-15 13:05:05

liyun80000 4

2021-10-15 13:05:05

感谢楼主分享
回复 支持 反对

使用道具 举报

老鼠响叮当燚燚 发表于 2021-10-15 18:28:23

老鼠响叮当燚燚 5

2021-10-15 18:28:23

谢谢楼主发片分享
回复 支持 反对

使用道具 举报

   发表回复

您需要登录后才可以回帖 登录 | 立即注册

返回列表 本版积分规则

  • 发布新帖

  • 客服/帮助

  • 手机APP

  • 返回顶部