微博 微信 APP

Hao4K影音

电视剧频道
电视剧封面:
电视剧名: 科米的规则4k
年  代: 2020  
国  家: 美国
类  别: 剧情 传记 
语  言: 英语
字  幕: 英文原版
上映日期: 2020-09-27
文件格式: mkv    
视频效果: 4K(3840x2160)    
资源大小: 22.25 GB
片  长: -
导  演: 比利·雷
剧情简介: 杰夫·丹尼尔斯在剧中饰演曾任FBI局长的詹姆斯·科米。剧集改编自科米所著的畅销书《更高的忠诚》,讲述2016年总统大选时发生的一切,以及这次选举所带来的后续影响。
更高的忠诚 / A Higher Loyalty/科米的规则4k The.Comey.Rule.S01.2160p.WEB-DL.DD5.1.DV.MP4.x265美剧信息
  1. Video
  2. ID : 1
  3. Format : HEVC
  4. Format/Info : High Efficiency Video Coding
  5. Format profile : Main 10@L5@Main
  6. HDR format : Dolby Vision, Version 1.0, dvhe.05.06, BL+RPU
  7. Codec ID : dvhe
  8. Codec ID/Info : High Efficiency Video Coding with Dolby Vision
  9. Duration : 1 h 55 min
  10. Bit rate : 14.8 Mb/s
  11. Width : 3 840 pixels
  12. Height : 2 160 pixels
  13. Display aspect ratio : 16:9
  14. Frame rate mode : Constant
  15. Frame rate : 23.976 (24000/1001) FPS
  16. Color space : YUV
  17. Chroma subsampling : 4:2:0
  18. Bit depth : 10 bits
  19. Bits/(Pixel*Frame) : 0.074
  20. Stream size : 11.9 GiB (97%)
  21. Writing library : x265 2.8hy:[Linux][GCC 7.5.0][64 bit] 10bit
  22. Encoding settings : cpuid=1111039 / frame-threads=1 / no-wpp / no-pmode / no-pme / no-psnr / no-ssim / log-level=2 / input-csp=1 / input-res=3840x2160 / interlace=0 / total-frames=0 / level-idc=0 / high-tier=1 / uhd-bd=0 / ref=4 / no-allow-non-conformance / repeat-headers / annexb / aud / hrd / info / hash=0 / no-temporal-layers / no-open-gop / min-keyint=48 / keyint=48 / gop-lookahead=0 / bframes=4 / b-adapt=2 / b-pyramid / bframe-bias=0 / rc-lookahead=48 / lookahead-slices=4 / scenecut=0 / radl=0 / no-intra-refresh / ctu=64 / min-cu-size=8 / rect / no-amp / max-tu-size=32 / tu-inter-depth=1 / tu-intra-depth=1 / limit-tu=0 / rdoq-level=2 / dynamic-rd=0.00 / no-ssim-rd / signhide / no-tskip / nr-intra=100 / nr-inter=400 / no-constrained-intra / strong-intra-smoothing / max-merge=3 / limit-refs=3 / limit-modes / me=3 / subme=3 / merange=57 / temporal-mvp / weightp / no-weightb / no-analyze-src-pics / deblock=0:0 / sao / no-sao-non-deblock / rd=4 / no-early-skip / rskip / no-fast-intra / no-tskip-fast / no-cu-lossless / no-b-intra / no-splitrd-skip / rdpenalty=0 / psy-rd=0.00 / psy-rdoq=1.00 / no-rd-refine / no-lossless / cbqpoffs=0 / crqpoffs=3 / rc=abr / bitrate=15000 / qcomp=0.60 / qpstep=4 / stats-write=0 / stats-read=2 / cplxblur=20.0 / qblur=0.5 / vbv-maxrate=18000 / vbv-bufsize=12000 / vbv-init=0.6 / vbv-end=0.6 / vbv-end-fr-adj=0.0 / ipratio=1.40 / pbratio=1.30 / aq-mode=1 / aq-strength=1.00 / cutree / zone-count=0 / no-strict-cbr / qg-size=32 / no-rc-grain / qpmax=69 / qpmin=0 / no-const-vbv / sar=1 / overscan=0 / videoformat=5 / range=1 / colorprim=2 / transfer=2 / colormatrix=2 / chromaloc=0 / display-window=0 / max-cll=0,0 / min-luma=0 / max-luma=1023 / log2-max-poc-lsb=8 / vui-timing-info / vui-hrd-info / no-concatenation / slices=1 / no-opt-qp-pps / no-opt-ref-list-length-pps / no-multi-pass-opt-rps / scenecut-bias=0.05 / no-opt-cu-delta-qp / no-aq-motion / no-hdr / no-hdr-opt / no-dhdr10-opt / no-idr-recovery-sei / analysis-reuse-level=5 / scale-factor=0 / refine-intra=0 / refine-inter=0 / refine-mv=0 / no-limit-sao / ctu-info=0 / no-lowpass-dct / refine-mv-type=0 / copy-pic=1 / max-ausize-factor=1.0 / no-dynamic-refine / no-single-sei
  23. Default : Yes
  24. Alternate group : 1
  25. Encoded date : UTC 2021-10-13 19:13:37
  26. Tagged date : UTC 2021-10-13 19:16:04
  27. Color range : Full
  28. Codec configuration box : hvcC+dvcC

  29. Audio
  30. ID : 2
  31. Format : AC-3
  32. Format/Info : Audio Coding 3
  33. Commercial name : Dolby Digital
  34. Codec ID : ac-3
  35. Duration : 1 h 55 min
  36. Bit rate mode : Constant
  37. Bit rate : 384 kb/s
  38. Maximum bit rate : 406 kb/s
  39. Channel(s) : 6 channels
  40. Channel layout : L R C LFE Ls Rs
  41. Sampling rate : 48.0 kHz
  42. Frame rate : 31.250 FPS (1536 SPF)
  43. Compression mode : Lossy
  44. Stream size : 316 MiB (3%)
  45. Language : English
  46. Service kind : Complete Main
  47. Default : Yes
  48. Alternate group : 1
  49. Tagged date : UTC 2021-10-13 19:16:04

  50. Text
  51. ID : 3
  52. Format : Timed Text
  53. Codec ID : tx3g
  54. Duration : 1 h 54 min
  55. Bit rate mode : Variable
  56. Bit rate : 100 b/s
  57. Stream size : 83.6 KiB (0%)
  58. Language : English
  59. Forced : No
  60. Encoded date : UTC 2021-10-13 19:16:04
  61. Tagged date : UTC 2021-10-13 19:16:04
复制代码

更高的忠诚 / A Higher Loyalty/科米的规则4k The.Comey.Rule.S01.2160p.WEB-DL.DD5.1.DV.MP4.x265美剧下载

科米的规则4k The.Comey.Rule.S01.2160p.WEB-DL.DD5.1.DV.MP4.x265杜比视界【22.25 GB】
[Hao4k]科米的规则4k The.Comey.Rule.S01.2160p.WEB-DL.DD5.1.DV.MP4.x265-TEPES.torrent (28.57 KB)
回复

使用道具 举报

   发表回复

您需要登录后才可以回帖 登录 | 立即注册

返回列表 本版积分规则

  • 发布新帖

  • 客服/帮助

  • 手机APP

  • 返回顶部