微博 微信 APP

Hao4K影音

电影频道
电影封面:
片  名: 爱尔兰人
电影分类: 犯罪 剧情 传记 
国  家: 美国 
年  代: 2019年
分 辨 率: 4K(3840x2160)
电影格式: M2TS|BDMV 
画质标准: Dolby Vision HDR10 
音质编码: Dolby-Atmos 
电影声道: 7.1声道 
帧数/FPS: 24 帧
电影语言: 中文简体 中文繁体 英文原版 
资源大小: 32.11 GB
导  演: 马丁·斯科塞斯
豆瓣评分: 8.8 分
中文字幕: -
剧情简介: 《爱尔兰人》为马丁·斯科塞斯执导的传奇巨制,罗伯特·德尼罗、阿尔·帕西诺和乔·佩西主演。通过二战老兵弗兰克·希兰的视角,讲述了战后美国有组织犯罪的故事。弗兰克·希兰是一名骗子和杀手,曾经在 20 世纪最恶名昭彰的人物身边工作。该电影跨越数十年,记录了美国历史上最大的悬案之一,即传奇工会领袖吉米·霍法失踪案,以宏大的故事之旅,展现有组织犯罪的隐秘通道:其内部运作、仇敌以及与主流政治的瓜葛。
视频源于DVT小组发行的杜比视界WEB-DL版,视频流帧率元数据由24调整为23.976以完美匹配蓝光版音轨。
音频仅保留蓝光版杜比全景声音轨,字幕仅保留简/繁/英(按照HDR标准转换为SUP图形字幕)。


详细文件信息:
  1. Video
  2. ID                                       : 4117 (0x1015)
  3. Menu ID                                  : 1 (0x1)
  4. Format                                   : HEVC
  5. Format/Info                              : High Efficiency Video Coding
  6. Format profile                           : Main 10@L5@Main
  7. HDR format                               : Dolby Vision, Version 1.0, dvhe.08.06, BL+RPU, HDR10 compatible / SMPTE ST 2086, HDR10 compatible
  8. Codec ID                                 : 36
  9. Duration                                 : 3 h 28 min
  10. Bit rate                                 : 20.3 Mb/s
  11. Width                                    : 3 840 pixels
  12. Height                                   : 2 160 pixels
  13. Display aspect ratio                     : 16:9
  14. Frame rate                               : 23.976 (24000/1001) FPS
  15. Color space                              : YUV
  16. Chroma subsampling                       : 4:2:0 (Type 2)
  17. Bit depth                                : 10 bits
  18. Bits/(Pixel*Frame)                       : 0.102
  19. Stream size                              : 29.6 GiB (92%)
  20. Color range                              : Limited
  21. Color primaries                          : BT.2020
  22. Transfer characteristics                 : PQ
  23. Matrix coefficients                      : BT.2020 non-constant
  24. Mastering display color primaries        : Display P3
  25. Mastering display luminance              : min: 0.0001 cd/m2, max: 1000 cd/m2
  26. Maximum Content Light Level              : 1014 cd/m2
  27. Maximum Frame-Average Light Level        : 263 cd/m2

  28. Audio
  29. ID                                       : 4352 (0x1100)
  30. Menu ID                                  : 1 (0x1)
  31. Format                                   : MLP FBA AC-3 16-ch
  32. Format/Info                              : Meridian Lossless Packing FBA with 16-channel presentation
  33. Commercial name                          : Dolby TrueHD with Dolby Atmos
  34. Muxing mode                              : Stream extension
  35. Codec ID                                 : 131
  36. Duration                                 : 3 h 28 min
  37. Bit rate mode                            : Variable
  38. Bit rate                                 : 640 kb/s
  39. Maximum bit rate                         : 7 932 kb/s
  40. Channel(s)                               : 8 channels
  41. Channel layout                           : L R C LFE Ls Rs Lb Rb
  42. Sampling rate                            : 48.0 kHz
  43. Frame rate                               : 31.250 FPS (1536 SPF)
  44. Compression mode                         : Lossless
  45. Stream size                              : 955 MiB (3%)
  46. Language                                 : English
  47. Service kind                             : Complete Main
  48. Number of dynamic objects                : 15
  49. Bed channel count                        : 1 channel
  50. Bed channel configuration                : LFE

  51. Text #1
  52. ID                                       : 4768 (0x12A0)
  53. Menu ID                                  : 1 (0x1)
  54. Format                                   : PGS
  55. Codec ID                                 : 144
  56. Duration                                 : 3 h 28 min
  57. Delay relative to video                  : 8 s 175 ms
  58. Language                                 : Chinese

  59. Text #2
  60. ID                                       : 4769 (0x12A1)
  61. Menu ID                                  : 1 (0x1)
  62. Format                                   : PGS
  63. Codec ID                                 : 144
  64. Duration                                 : 3 h 28 min
  65. Delay relative to video                  : 8 s 175 ms
  66. Language                                 : Chinese

  67. Text #3
  68. ID                                       : 4770 (0x12A2)
  69. Menu ID                                  : 1 (0x1)
  70. Format                                   : PGS
  71. Codec ID                                 : 144
  72. Language                                 : English
复制代码


文件符合杜比视界P8标准,TS容器封装。此格式经测试可以在Oppo 4K蓝光机、nVidia Shield Pro 2019、芝杜/杜恩搭载RTD1619DR芯片的机型,以及部分支持杜比视界的4K智能电视上以杜比视界格式播放,在不支持的设备上可能会以HDR10格式播放。如果安卓系统原生播放器不支持杜比视界,可以安装最新版Kodi、ViMu Media Player for TV或Just Player播放以尝试点亮杜比视界。建议先下载测试文件,测试成功播放后再下载。


测试片段链接(阿里云盘):https://www.aliyundrive.com/s/hbpbArH5zx7

完整版链接(阿里云盘):https://www.aliyundrive.com/s/XRTsf21zmEA

回复

使用道具 举报

全部回复7

smilefish 2

21-11-9 18:22

没有迅雷或者百度云?
回复 支持 反对

使用道具 举报

745745 3

21-11-9 20:32

smilefish 发表于 21-11-9 18:22
没有迅雷或者百度云?

没写就是没有了
回复 支持 反对

使用道具 举报

jarvis200 21-11-10 12:19 Hao4K手机版 显示全部楼层

jarvis200 4

21-11-10 12:19

下载了5G多一点,突然说没有下载权限,重新试了几次也没有解决。
回复 支持 反对

使用道具 举报

745745 5

21-11-10 16:45

jarvis200 发表于 21-11-10 12:19
下载了5G多一点,突然说没有下载权限,重新试了几次也没有解决。

试试先转存再下载?或者用客户端试试看
回复 支持 反对

使用道具 举报

les5332295 6

21-11-11 07:09

爱尔兰人,谢谢分享
回复 支持 反对

使用道具 举报

daniel2go 21-11-13 12:38 显示全部楼层

daniel2go 7

21-11-13 12:38

楼主牛皮,期待更多作品
回复 支持 反对

使用道具 举报

bbgrnnji 21-11-13 17:47 显示全部楼层

bbgrnnji 8

21-11-13 17:47

这个电影必须看
回复 支持 反对

使用道具 举报

   发表回复

您需要登录后才可以回帖 登录 | 立即注册

返回列表 本版积分规则

  • 发布新帖

  • 客服/帮助

  • 手机APP

  • 返回顶部