微博 微信 APP

Hao4K影音

电视剧频道
电视剧封面:
电视剧名: 嗜血法医 第九季4k
年  代: 2021  
国  家: 美国
类  别: 犯罪 惊悚 
语  言: 英语
字  幕: 英文原版
上映日期: 2006-2013
文件格式: mkv    
视频效果: 4K(3840x2160)    
资源大小: 6.14 GB
片  长: -
导  演: 基斯·戈登
剧情简介: 他很聪明,很帅,而且很有幽默感。他是德克斯特摩根,每个人都喜欢的连环杀手。作为迈阿密的法医专家,他白天解决犯罪,晚上犯罪。但德克斯特遵守严格的荣誉准则,这既是他的救赎恩典,也是他终生的负担。德克斯特在他致命的强迫症和对真正幸福的渴望之间左右为难,他是一个与世界和他自己发生深刻冲突的人。金球奖得主迈克尔·C·霍尔 (Michael C. Hall) 出演热门的 SHOWTIME 原创系列剧。
嗜血法医 第九季4k.Dexter.S09E01.HDR.2160p.WEB.H265-4k美剧信息
  1. Video
  2. ID : 1
  3. Format : HEVC
  4. Format/Info : High Efficiency Video Coding
  5. Format profile : Main 10@L5@Main
  6. HDR format : SMPTE ST 2086, HDR10 compatible
  7. Codec ID : V_MPEGH/ISO/HEVC
  8. Duration : 57 min 11 s
  9. Bit rate : 14.4 Mb/s
  10. Width : 3 840 pixels
  11. Height : 2 160 pixels
  12. Display aspect ratio : 16:9
  13. Frame rate mode : Constant
  14. Frame rate : 23.976 (24000/1001) FPS
  15. Color space : YUV
  16. Chroma subsampling : 4:2:0
  17. Bit depth : 10 bits
  18. Bits/(Pixel*Frame) : 0.072
  19. Stream size : 5.76 GiB (95%)
  20. Writing library : x265 3.4hy:[Linux][GCC 7.5.0][64 bit] 10bit
  21. Encoding settings : cpuid=1111039 / frame-threads=6 / no-wpp / no-pmode / no-pme / no-psnr / no-ssim / log-level=2 / input-csp=1 / input-res=3840x2160 / interlace=0 / total-frames=0 / level-idc=0 / high-tier=1 / uhd-bd=0 / ref=4 / no-allow-non-conformance / repeat-headers / annexb / aud / hrd / info / hash=0 / no-temporal-layers / no-open-gop / min-keyint=48 / keyint=48 / gop-lookahead=0 / bframes=4 / b-adapt=2 / b-pyramid / bframe-bias=0 / rc-lookahead=48 / lookahead-slices=4 / scenecut=0 / hist-scenecut=0 / radl=0 / no-splice / no-intra-refresh / ctu=64 / min-cu-size=8 / rect / no-amp / max-tu-size=32 / tu-inter-depth=1 / tu-intra-depth=1 / limit-tu=0 / rdoq-level=2 / dynamic-rd=0.00 / no-ssim-rd / signhide / no-tskip / nr-intra=100 / nr-inter=400 / no-constrained-intra / strong-intra-smoothing / max-merge=3 / limit-refs=3 / limit-modes / me=3 / subme=3 / merange=57 / temporal-mvp / no-frame-dup / no-hme / weightp / no-weightb / no-analyze-src-pics / deblock=0:0 / sao / no-sao-non-deblock / rd=4 / selective-sao=4 / no-early-skip / rskip / no-fast-intra / no-tskip-fast / no-cu-lossless / no-b-intra / no-splitrd-skip / rdpenalty=0 / psy-rd=0.00 / psy-rdoq=1.00 / no-rd-refine / no-lossless / cbqpoffs=0 / crqpoffs=3 / rc=abr / bitrate=15000 / qcomp=0.60 / qpstep=4 / stats-write=0 / stats-read=2 / cplxblur=20.0 / qblur=0.5 / vbv-maxrate=18000 / vbv-bufsize=12000 / vbv-init=0.6 / vbv-end=0.6 / vbv-end-fr-adj=0.0 / ipratio=1.40 / pbratio=1.30 / aq-mode=2 / aq-strength=1.00 / cutree / zone-count=0 / no-strict-cbr / qg-size=32 / no-rc-grain / qpmax=69 / qpmin=0 / no-const-vbv / sar=1 / overscan=0 / videoformat=5 / range=0 / colorprim=9 / transfer=16 / colormatrix=9 / chromaloc=0 / display-window=0 / master-display=G(13250,34500)B(7500,3000)R(34000,16000)WP(15635,16450)L(10000000,1) / cll=0,0 / min-luma=0 / max-luma=1023 / log2-max-poc-lsb=8 / vui-timing-info / vui-hrd-info / no-concatenation / slices=1 / no-opt-qp-pps / no-opt-ref-list-length-pps / no-multi-pass-opt-rps / scenecut-bias=0.05 / hist-threshold=0.01 / no-opt-cu-delta-qp / no-aq-motion / hdr10 / no-hdr10-opt / no-dhdr10-opt / no-idr-recovery-sei / analysis-reuse-level=0 / analysis-save-reuse-level=0 / analysis-load-reuse-level=0 / scale-factor=0 / refine-intra=0 / refine-inter=0 / refine-mv=1 / refine-ctu-distortion=0 / no-limit-sao / ctu-info=0 / no-lowpass-dct / refine-analysis-type=0 / copy-pic=1 / max-ausize-factor=1.0 / no-dynamic-refine / no-single-sei / no-hevc-aq / no-svt / no-field / qp-adaptation-range=1.00 / no-scenecut-aware-qpconformance-window-offsets / right=0 / bottom=0 / decoder-max-rate=0
  22. Default : Yes
  23. Forced : No
  24. Color range : Limited
  25. Color primaries : BT.2020
  26. Transfer characteristics : PQ
  27. Matrix coefficients : BT.2020 non-constant
  28. Mastering display color primaries : Display P3
  29. Mastering display luminance : min: 0.0001 cd/m2, max: 1000 cd/m2

  30. Audio
  31. ID : 2
  32. Format : AC-3
  33. Format/Info : Audio Coding 3
  34. Commercial name : Dolby Digital
  35. Codec ID : A_AC3
  36. Duration : 57 min 11 s
  37. Bit rate mode : Constant
  38. Bit rate : 384 kb/s
  39. Channel(s) : 6 channels
  40. Channel layout : L R C LFE Ls Rs
  41. Sampling rate : 48.0 kHz
  42. Frame rate : 31.250 FPS (1536 SPF)
  43. Compression mode : Lossy
  44. Stream size : 157 MiB (3%)
  45. Language : English
  46. Service kind : Complete Main
  47. Default : Yes
  48. Forced : No

  49. Text
  50. ID : 3
  51. Format : UTF-8
  52. Codec ID : S_TEXT/UTF8
  53. Codec ID/Info : UTF-8 Plain Text
  54. Title : English
  55. Language : English
  56. Default : No
  57. Forced : No
复制代码

嗜血法医 第九季4k.Dexter.S09E01.HDR.2160p.WEB.H265-4k美剧下载

嗜血法医 第九季4k.Dexter.S09E01.HDR.2160p.WEB.H265【6.14 GB】
[Hao4k]嗜血法医 第九季4k Dexter.S09E01.HDR.2160p.WEB.H265-GLHF.torrent (16.16 KB)
回复

使用道具 举报

全部回复3

isping 21-11-16 17:36 显示全部楼层

isping 2

21-11-16 17:36

天哪,活久见系列
回复 支持 反对

使用道具 举报

isping 21-11-16 21:26 显示全部楼层

isping 3

21-11-16 21:26

希望能更新其他8季
回复 支持 反对

使用道具 举报

isping 21-11-16 21:45 显示全部楼层

isping 4

21-11-16 21:45

回复 支持 反对

使用道具 举报

   发表回复

您需要登录后才可以回帖 登录 | 立即注册

返回列表 本版积分规则

  • 发布新帖

  • 客服/帮助

  • 手机APP

  • 返回顶部