微博 微信 手机APP

Hao4K影音

电视剧频道
电视剧封面:
电视剧名: 恋爱时代4k
年  代: 90年代  
国  家: 美国
类  别: 剧情 
语  言: 英语
字  幕: 英文原版
上映日期: 1998-01-20
文件格式: mkv    
视频效果: 4K(3840x2160)    
资源大小: 1.77 GB
片  长: 45 分钟
导  演: 卢·安东尼奥 / 阿文·布朗
剧情简介: 这部剧从1998年开播、共播出六年、被誉为“美国青少年成长教科书”的青春偶像剧。《Dawson\'s Creek》故事发生在美国东部城市波士顿(Boston)附近一个名为Capeside的海边小镇,剧情围绕两男两女四个好朋友如何一步步走过青春期、走向成熟:15岁的Dawson(James Van Der Beek饰演)是一个迷恋着斯皮尔伯格不可救药的梦想家,住在小溪下游的Joey(Katie Holmes饰演)浑身散发着自然纯朴的邻家女孩气息,Dawson的“问题”好友Pacey总是敢于冒险做出一些让大家不可思议的举动,新搬到Dawson家隔壁来的纽约女孩Jen可爱的外表下却有着一颗狂野不羁的心……这就是《Dawson\'s Creek》第一季节目四位主角的设定,在随后五年的播出中,主角阵容虽然有着细微的变化,比如后来新增的同性恋角色Jack,但四位好友依然是故事的中心,他们相识相知、高中毕业、走进大学、各奔东西,经历的种种友情、亲情、爱情纷扰,至今仍为众多剧迷津津乐道……
恋爱时代4k Dawsons.Creek.S01.2160p.STAN.WEB-DL.AAC5.1.x265-4k美剧信息
  1. Video
  2. ID : 1
  3. Format : HEVC
  4. Format/Info : High Efficiency Video Coding
  5. Format profile : Main@L5@High
  6. Codec ID : V_MPEGH/ISO/HEVC
  7. Duration : 44 min 41 s
  8. Bit rate : 15.0 Mb/s
  9. Width : 3 840 pixels
  10. Height : 2 160 pixels
  11. Display aspect ratio : 16:9
  12. Frame rate mode : Constant
  13. Frame rate : 23.976 (24000/1001) FPS
  14. Color space : YUV
  15. Chroma subsampling : 4:2:0
  16. Bit depth : 8 bits
  17. Bits/(Pixel*Frame) : 0.076
  18. Stream size : 4.69 GiB (97%)
  19. Default : Yes
  20. Forced : No
  21. Color range : Limited
  22. Color primaries : BT.709
  23. Transfer characteristics : BT.709
  24. Matrix coefficients : BT.709

  25. Audio
  26. ID : 2
  27. Format : AAC LC
  28. Format/Info : Advanced Audio Codec Low Complexity
  29. Codec ID : A_AAC-2
  30. Duration : 44 min 41 s
  31. Bit rate : 445 kb/s
  32. Channel(s) : 6 channels
  33. Channel layout : C L R Ls Rs LFE
  34. Sampling rate : 48.0 kHz
  35. Frame rate : 46.875 FPS (1024 SPF)
  36. Compression mode : Lossy
  37. Stream size : 142 MiB (3%)
  38. Language : English
  39. Default : No
  40. Forced : No

  41. Text #1
  42. ID : 3
  43. Format : UTF-8
  44. Codec ID : S_TEXT/UTF8
  45. Codec ID/Info : UTF-8 Plain Text
  46. Duration : 43 min 36 s
  47. Bit rate : 94 b/s
  48. Count of elements : 926
  49. Stream size : 30.2 KiB (0%)
  50. Language : English
  51. Default : No
  52. Forced : No

  53. Text #2
  54. ID : 4
  55. Format : UTF-8
  56. Codec ID : S_TEXT/UTF8
  57. Codec ID/Info : UTF-8 Plain Text
  58. Duration : 43 min 38 s
  59. Bit rate : 96 b/s
  60. Count of elements : 959
  61. Stream size : 30.9 KiB (0%)
  62. Title : SDH
  63. Language : English
  64. Default : No
  65. Forced : No

  66. Menu
  67. 00:00:00.000 : en:Recap
  68. 00:00:20.000 : en:Main
  69. 00:03:10.000 : en:Intro
  70. 00:03:56.000 : en:Main
  71. 00:44:05.000 : en:Credits
复制代码

恋爱时代4k Dawsons.Creek.S01.2160p.STAN.WEB-DL.AAC5.1.x265-4k美剧信下载

恋爱时代4k Dawsons.Creek.S01.2160p.STAN.WEB-DL.AAC5.1.x265【61.77 GB】
[Hao4k]恋爱时代4k Dawsons.Creek.S01.2160p.STAN.WEB-DL.AAC5.1.x265-FLUX.torrent (79.06 KB)
回复

使用道具 举报

   发表回复

您需要登录后才可以回帖 登录 | 立即注册

返回列表 本版积分规则

  • 发布新帖

  • 客服/帮助

  • 手机APP

  • 返回顶部