微博 微信 手机APP

Hao4K影音

电影频道
电影封面:
片  名: See.You.Next.Christmas
电影分类: 喜剧 爱情片 
国  家: 美国 
年  代: 2021年
分 辨 率: 4K(3840x2160)
电影格式: MKV|REMUX 
画质标准: SDR 
音质编码: 其他AAC 
电影声道: 2.0声道 
帧数/FPS: 23.976 帧
电影语言: 英文原版 
资源大小: 14.37 GB
导  演: 克里斯汀·韦瑟普
豆瓣评分:
中文字幕: -
剧情简介: 安妮和汤姆克拉克每年都会举办一个节日派对,“Clarkmas”。多年来,它已成为他们一群混混的朋友的首选假期活动。当长期单身的娜塔莉和洛根年复一年地在派对上相遇时,他们开始怀疑他们是否注定要在一起。
See.You.Next.Christmas.2021.2160p.WEB-DL.x265.10bit.SDR.AAC2.0-4k电影信息
  1. Video
  2. ID : 1
  3. Format : HEVC
  4. Format/Info : High Efficiency Video Coding
  5. Format profile : Main 10@L5@High
  6. Codec ID : V_MPEGH/ISO/HEVC
  7. Duration : 1 h 39 min
  8. Bit rate : 20.5 Mb/s
  9. Width : 3 836 pixels
  10. Height : 1 912 pixels
  11. Display aspect ratio : 2.006
  12. Frame rate mode : Constant
  13. Frame rate : 23.976 FPS
  14. Color space : YUV
  15. Chroma subsampling : 4:2:0
  16. Bit depth : 10 bits
  17. Bits/(Pixel*Frame) : 0.117
  18. Stream size : 14.3 GiB (99%)
  19. Default : Yes
  20. Forced : No
  21. Color range : Limited
  22. Color primaries : BT.709
  23. Transfer characteristics : BT.709
  24. Matrix coefficients : BT.709

  25. Audio
  26. ID : 2
  27. Format : AAC LC
  28. Format/Info : Advanced Audio Codec Low Complexity
  29. Codec ID : A_AAC-2
  30. Duration : 1 h 39 min
  31. Bit rate : 162 kb/s
  32. Channel(s) : 2 channels
  33. Channel layout : L R
  34. Sampling rate : 48.0 kHz
  35. Frame rate : 46.875 FPS (1024 SPF)
  36. Compression mode : Lossy
  37. Stream size : 115 MiB (1%)
  38. Title : English
  39. Language : English
  40. Default : No
  41. Forced : No

  42. Text
  43. ID : 3
  44. Format : UTF-8
  45. Codec ID : S_TEXT/UTF8
  46. Codec ID/Info : UTF-8 Plain Text
  47. Duration : 1 h 36 min
  48. Bit rate : 90 b/s
  49. Count of elements : 2323
  50. Stream size : 64.2 KiB (0%)
  51. Language : English
  52. Default : Yes
  53. Forced : No
复制代码

See.You.Next.Christmas.2021.2160p.WEB-DL.x265.10bit.SDR.AAC2.0-4k电影下载
See.You.Next.Christmas.2021.2160p.WEB-DL.x265.10bit.SDR.AAC2.0【4k SDR 14.37 GB】
[Hao4k]See.You.Next.Christmas.2021.2160p.WEB-DL.x265.10bit.SDR.AAC2.0-NOGRP.torrent (18.62 KB)
回复

使用道具 举报

全部回复5

QQ_1C652F 2

21-11-9 22:06

谢谢楼主无私分享
回复 支持 反对

使用道具 举报

loushunming 3

21-11-9 22:09

谢谢楼主无私分享
回复 支持 反对

使用道具 举报

jjpf 21-11-11 13:13 显示全部楼层

jjpf 4

21-11-11 13:13


谢谢楼主无私分享
回复 支持 反对

使用道具 举报

qzy4057 21-11-11 14:39 显示全部楼层

qzy4057 5

21-11-11 14:39

为什么没有中文名字
回复 支持 反对

使用道具 举报

yyfsun 21-11-27 16:17 显示全部楼层

yyfsun 6

21-11-27 16:17

非常感谢分享,赞一个先
回复 支持 反对

使用道具 举报

   发表回复

您需要登录后才可以回帖 登录 | 立即注册

返回列表 本版积分规则

  • 发布新帖

  • 客服/帮助

  • 手机APP

  • 返回顶部