微博 微信 APP

Hao4K影音

电影频道
电影封面:
片  名: 007:无暇赴死 4K
电影分类: 动作 冒险 惊悚 
国  家: 美国 
年  代: 2021年
分 辨 率: 4K(3840x2160)
电影格式: MKV|REMUX 
画质标准: HDR 
音质编码: Dolby Digital Plus Audio 
电影声道: 5.1声道 
帧数/FPS: 23.976 帧
电影语言: 英文原版 
资源大小: 17.25 GB
导  演: 凯瑞·福永
豆瓣评分: 6.9 分
中文字幕: /thread-63750-1-1.html
剧情简介: 世界局势波诡云谲,再度出山的邦德(丹尼尔·克雷格 饰)面临有史以来空前的危机,传奇特工007的故事在本片中达到高潮。新老角色集结亮相,蕾雅·赛杜回归,二度饰演邦女郎玛德琳。系列最恐怖反派萨芬(拉米·马雷克 饰)重磅登场,毫不留情地展示了自己狠辣的一面,不仅揭开了玛德琳身上隐藏的秘密,还酝酿着危及数百万人性命的阴谋,幽灵党的身影也似乎再次浮出水面。半路杀出的新00号特工(拉什纳·林奇 饰)与神秘女子(安娜·德·阿玛斯 饰)看似与邦德同阵作战,但其真实目的依然成谜。关乎邦德生死的新仇旧怨接踵而至,暗潮汹涌之下他能否拯救世界?
007:生死有时(港) / 007:生死交战(台) / 007:间不容死 / 邦德25 / 007:没空去死(豆友译名) / James Bond 25 / Never Dream of Dying / Shatterhand/007:无暇赴死4k.No.Time.To.Die.2021.2160p.WEB-DL.x265.10bit.HDR.DDP5.1.Atmos-4k电影信息
  1. Video
  2. ID : 1
  3. Format : HEVC
  4. Format/Info : High Efficiency Video Coding
  5. Format profile : Main 10@L5@High
  6. HDR format : SMPTE ST 2086, HDR10 compatible
  7. Codec ID : V_MPEGH/ISO/HEVC
  8. Duration : 2 h 43 min
  9. Bit rate : 14.3 Mb/s
  10. Width : 3 832 pixels
  11. Height : 1 596 pixels
  12. Display aspect ratio : 2.40:1
  13. Frame rate mode : Constant
  14. Frame rate : 23.976 FPS
  15. Color space : YUV
  16. Chroma subsampling : 4:2:0 (Type 2)
  17. Bit depth : 10 bits
  18. Bits/(Pixel*Frame) : 0.098
  19. Stream size : 16.4 GiB (95%)
  20. Default : Yes
  21. Forced : No
  22. Color range : Limited
  23. Color primaries : BT.2020
  24. Transfer characteristics : PQ
  25. Matrix coefficients : BT.2020 non-constant
  26. Mastering display color primaries : BT.2020
  27. Mastering display luminance : min: 0.0050 cd/m2, max: 1000 cd/m2
  28. Maximum Content Light Level : 1753 cd/m2
  29. Maximum Frame-Average Light Level : 990 cd/m2

  30. Audio
  31. ID : 2
  32. Format : E-AC-3 JOC
  33. Format/Info : Enhanced AC-3 with Joint Object Coding
  34. Commercial name : Dolby Digital Plus with Dolby Atmos
  35. Codec ID : A_EAC3
  36. Duration : 2 h 43 min
  37. Bit rate mode : Constant
  38. Bit rate : 768 kb/s
  39. Channel(s) : 6 channels
  40. Channel layout : L R C LFE Ls Rs
  41. Sampling rate : 48.0 kHz
  42. Frame rate : 31.250 FPS (1536 SPF)
  43. Compression mode : Lossy
  44. Stream size : 898 MiB (5%)
  45. Title : English (UK)
  46. Language : English
  47. Service kind : Complete Main
  48. Default : No
  49. Forced : No
  50. Complexity index : 16
  51. Number of dynamic objects : 15
  52. Bed channel count : 1 channel
  53. Bed channel configuration : LFE

  54. Text #1
  55. ID : 3
  56. Format : UTF-8
  57. Codec ID : S_TEXT/UTF8
  58. Codec ID/Info : UTF-8 Plain Text
  59. Duration : 2 h 15 min
  60. Bit rate : 1 b/s
  61. Count of elements : 55
  62. Stream size : 1.19 KiB (0%)
  63. Title : Forced
  64. Language : English
  65. Default : No
  66. Forced : Yes

  67. Text #2
  68. ID : 4
  69. Format : UTF-8
  70. Codec ID : S_TEXT/UTF8
  71. Codec ID/Info : UTF-8 Plain Text
  72. Duration : 2 h 35 min
  73. Bit rate : 42 b/s
  74. Count of elements : 1671
  75. Stream size : 48.4 KiB (0%)
  76. Language : English
  77. Default : No
  78. Forced : No

  79. Text #3
  80. ID : 5
  81. Format : UTF-8
  82. Codec ID : S_TEXT/UTF8
  83. Codec ID/Info : UTF-8 Plain Text
  84. Duration : 2 h 40 min
  85. Bit rate : 52 b/s
  86. Count of elements : 2136
  87. Stream size : 61.1 KiB (0%)
  88. Title : SDH
  89. Language : English
  90. Default : No
  91. Forced : No

  92. Text #4
  93. ID : 6
  94. Format : UTF-8
  95. Codec ID : S_TEXT/UTF8
  96. Codec ID/Info : UTF-8 Plain Text
  97. Duration : 2 h 42 min
  98. Bit rate : 39 b/s
  99. Count of elements : 1693
  100. Stream size : 46.7 KiB (0%)
  101. Title : Latin American
  102. Language : Spanish
  103. Default : No
  104. Forced : No

  105. Text #5
  106. ID : 7
  107. Format : UTF-8
  108. Codec ID : S_TEXT/UTF8
  109. Codec ID/Info : UTF-8 Plain Text
  110. Duration : 2 h 39 min
  111. Bit rate : 33 b/s
  112. Count of elements : 1538
  113. Stream size : 38.7 KiB (0%)
  114. Language : French
  115. Default : No
  116. Forced : No

  117. Text #6
  118. ID : 8
  119. Format : UTF-8
  120. Codec ID : S_TEXT/UTF8
  121. Codec ID/Info : UTF-8 Plain Text
  122. Duration : 2 h 42 min
  123. Bit rate : 37 b/s
  124. Count of elements : 1655
  125. Stream size : 44.8 KiB (0%)
  126. Language : Korean
  127. Default : No
  128. Forced : No

  129. Menu
  130. 00:00:00.000 : en:Chapter 1
  131. 00:11:57.125 : en:Chapter 2
  132. 00:27:09.750 : en:Chapter 3
  133. 00:43:46.000 : en:Chapter 4
  134. 00:56:58.099 : en:Chapter 5
  135. 01:04:09.000 : en:Chapter 6
  136. 01:13:06.500 : en:Chapter 7
  137. 01:22:28.832 : en:Chapter 8
  138. 01:33:49.332 : en:Chapter 9
  139. 01:51:42.000 : en:Chapter 10
  140. 02:06:54.000 : en:Chapter 11
  141. 02:25:23.500 : en:Chapter 12
  142. 02:35:07.000 : en:Chapter 13
复制代码

007:生死有时(港) / 007:生死交战(台) / 007:间不容死 / 邦德25 / 007:没空去死(豆友译名) / James Bond 25 / Never Dream of Dying / Shatterhand/007:无暇赴死4k.No.Time.To.Die.2021.2160p.WEB-DL.x265.10bit.HDR.DDP5.1.Atmos-4k电影下载

为了避免播放4K电影画面发紫发绿;请设备不支持DV杜比视界格式的不要下载DV 杜比视界版本

007:无暇赴死4k.No.Time.To.Die.2021.2160p.WEB-DL.x265.10bit.HDR.DDP5.1.Atmos 【4K HDR 17.25 GB】
[Hao4K]007:无暇赴死4K.No.Time.To.Die.2021.2160p.WEB-DL.x265.10bit.HDR.DDP5.1.Atmos-NOTIMETOCRY.torrent (22.21 KB, 售价: 3 个K币)
回复

使用道具 举报

   发表回复

您需要登录后才可以回帖 登录 | 立即注册

返回列表 本版积分规则

  • 发布新帖

  • 客服/帮助

  • 手机APP

  • 返回顶部