微博 微信 APP

Hao4K影音

电影频道
电影封面:
片  名: Two.Yellow.Lines
电影分类: 其他 
国  家: 美国 
年  代: 2021年
分 辨 率: 4K(3840x2160)
电影格式: MKV|REMUX 
画质标准: HDR SDR 
音质编码: Dolby Digital Audio 
电影声道: 5.1声道 
帧数/FPS: 23.976 帧
电影语言: 英文原版 
资源大小: 9.76 GB
导  演: 德里克·鲍尔
豆瓣评分:
中文字幕: -
剧情简介: 一名前 Smokejumper 在被要求与他疏远的十几岁的女儿骑摩托车穿越蒙大拿州一千英里时,不得不面对他焦灼的过去。
Two.Yellow.Lines.2021.2160p.WEB-DL.x265.10bit.HDR.DD5.1-4k美剧信息
  1. Video
  2. ID : 1
  3. Format : HEVC
  4. Format/Info : High Efficiency Video Coding
  5. Format profile : Main 10@L5@High
  6. HDR format : SMPTE ST 2086, HDR10 compatible
  7. Codec ID : V_MPEGH/ISO/HEVC
  8. Duration : 1 h 35 min
  9. Bit rate : 14.3 Mb/s
  10. Width : 3 836 pixels
  11. Height : 1 602 pixels
  12. Display aspect ratio : 2.40:1
  13. Frame rate mode : Constant
  14. Frame rate : 23.976 FPS
  15. Color space : YUV
  16. Chroma subsampling : 4:2:0 (Type 2)
  17. Bit depth : 10 bits
  18. Bits/(Pixel*Frame) : 0.097
  19. Stream size : 9.50 GiB (97%)
  20. Default : Yes
  21. Forced : No
  22. Color range : Limited
  23. Color primaries : BT.2020
  24. Transfer characteristics : PQ
  25. Matrix coefficients : BT.2020 non-constant
  26. Mastering display color primaries : Display P3
  27. Mastering display luminance : min: 0.0050 cd/m2, max: 1000 cd/m2
  28. Maximum Content Light Level : 953 cd/m2
  29. Maximum Frame-Average Light Level : 91 cd/m2

  30. Audio
  31. ID : 2
  32. Format : AC-3
  33. Format/Info : Audio Coding 3
  34. Commercial name : Dolby Digital
  35. Codec ID : A_AC3
  36. Duration : 1 h 35 min
  37. Bit rate mode : Constant
  38. Bit rate : 384 kb/s
  39. Channel(s) : 6 channels
  40. Channel layout : L R C LFE Ls Rs
  41. Sampling rate : 48.0 kHz
  42. Frame rate : 31.250 FPS (1536 SPF)
  43. Compression mode : Lossy
  44. Stream size : 261 MiB (3%)
  45. Title : English
  46. Language : English
  47. Service kind : Complete Main
  48. Default : No
  49. Forced : No

  50. Text
  51. ID : 3
  52. Format : UTF-8
  53. Codec ID : S_TEXT/UTF8
  54. Codec ID/Info : UTF-8 Plain Text
  55. Duration : 1 h 31 min
  56. Bit rate : 32 b/s
  57. Count of elements : 792
  58. Stream size : 21.7 KiB (0%)
  59. Language : English
  60. Default : Yes
  61. Forced : No
复制代码

Two.Yellow.Lines.2021.2160p.WEB-DL.x265.10bit.HDR.DD5.1-4k美剧下载

Two.Yellow.Lines.2021.2160p.WEB-DL.x265.10bit.HDR.DD5.1【4k HDR 9.76 GB】
[Hao4k]Two.Yellow.Lines.2021.2160p.WEB-DL.x265.10bit.HDR.DD5.1-NOGRP.torrent (25.05 KB)
回复

使用道具 举报

全部回复7

农夫舅舅 2

21-11-9 21:20

感觉有看头
回复 支持 反对

使用道具 举报

QQ_1C652F 3

21-11-9 22:07

谢谢楼主无私分享
回复 支持 反对

使用道具 举报

dengke118 21-11-10 09:19 显示全部楼层

dengke118 4

21-11-10 09:19

谢谢分享。楼主真好!!
回复 支持 反对

使用道具 举报

jjpf 21-11-11 13:12 显示全部楼层

jjpf 5

21-11-11 13:12


谢谢楼主无私分享
回复 支持 反对

使用道具 举报

qzy4057 21-11-11 14:38 显示全部楼层

qzy4057 6

21-11-11 14:38

这个没有中文名字吗?
回复 支持 反对

使用道具 举报

maxzs 21-11-11 22:50 显示全部楼层

maxzs 7

21-11-11 22:50

为什么没有资源?
回复 支持 反对

使用道具 举报

648896447 21-11-22 00:58 显示全部楼层

648896447 8

21-11-22 00:58

求字幕!!!!
回复 支持 反对

使用道具 举报

   发表回复

您需要登录后才可以回帖 登录 | 立即注册

返回列表 本版积分规则

  • 发布新帖

  • 客服/帮助

  • 手机APP

  • 返回顶部