微博 微信 APP

Hao4K影音

电影频道
电影封面:
片  名: 大红狗克里弗4k
电影分类: 冒险 喜剧 奇幻 动画 爱情片 
国  家: 美国 英国 加拿大 
年  代: 2021年
分 辨 率: 4K(3840x2160)
电影格式: MKV|REMUX 
画质标准: HDR10 
音质编码: Dolby Digital Plus Audio 
电影声道: 5.1声道 
帧数/FPS: 23.976 帧
电影语言: 英文原版 
资源大小: 10.27 GB
导  演: 沃尔特·拜克
豆瓣评分:
中文字幕: -
剧情简介: 该片由《鼠来宝4:萌在囧途》导演沃尔特·拜克执导,改编自同名畅销童书《Clifford the Big Red Dog》,讲述在纽约,小女孩Emily Elizabeth(达比·坎普饰演)得到了一条小狗,这只名叫Clifford的红色狗子乖巧可爱,成为了在学校不合群、孤独的她的好朋友。但狗狗慢慢长成了庞然大物,被一家生物基因公司看上了,Emily和叔叔Casy(杰克·怀特霍尔)必须带着它逃开贪婪之人的追捕。
赤BIG灵灵狗(港)/大红狗克里弗4k Clifford.the.Big.Red.Dog.2021.2160p.WEB-DL.x265.10bit.HDR10Plus.DDP5.1.Atmos-4k电影信息
  1. Video
  2. ID : 1
  3. Format : HEVC
  4. Format/Info : High Efficiency Video Coding
  5. Format profile : Main 10@L5@High
  6. HDR format : SMPTE ST 2094 App 4, Version 1, HDR10+ Profile B compatible
  7. Codec ID : V_MPEGH/ISO/HEVC
  8. Duration : 1 h 36 min
  9. Bit rate : 14.5 Mb/s
  10. Width : 3 840 pixels
  11. Height : 2 160 pixels
  12. Display aspect ratio : 16:9
  13. Frame rate mode : Constant
  14. Frame rate : 23.976 (24000/1001) FPS
  15. Color space : YUV
  16. Chroma subsampling : 4:2:0 (Type 2)
  17. Bit depth : 10 bits
  18. Bits/(Pixel*Frame) : 0.073
  19. Stream size : 9.75 GiB (95%)
  20. Language : English
  21. Default : Yes
  22. Forced : No
  23. Color range : Full
  24. Color primaries : BT.2020
  25. Transfer characteristics : PQ
  26. Matrix coefficients : BT.2020 non-constant
  27. Mastering display color primaries : Display P3
  28. Mastering display luminance : min: 0.0001 cd/m2, max: 1000 cd/m2

  29. Audio
  30. ID : 2
  31. Format : E-AC-3 JOC
  32. Format/Info : Enhanced AC-3 with Joint Object Coding
  33. Commercial name : Dolby Digital Plus with Dolby Atmos
  34. Codec ID : A_EAC3
  35. Duration : 1 h 36 min
  36. Bit rate mode : Constant
  37. Bit rate : 768 kb/s
  38. Channel(s) : 6 channels
  39. Channel layout : L R C LFE Ls Rs
  40. Sampling rate : 48.0 kHz
  41. Frame rate : 31.250 FPS (1536 SPF)
  42. Compression mode : Lossy
  43. Stream size : 530 MiB (5%)
  44. Language : English
  45. Service kind : Complete Main
  46. Default : Yes
  47. Forced : No
  48. Complexity index : 16
  49. Number of dynamic objects : 15
  50. Bed channel count : 1 channel
  51. Bed channel configuration : LFE

  52. Text
  53. ID : 3
  54. Format : UTF-8
  55. Codec ID : S_TEXT/UTF8
  56. Codec ID/Info : UTF-8 Plain Text
  57. Duration : 1 h 30 min
  58. Bit rate : 90 b/s
  59. Count of elements : 1996
  60. Stream size : 59.8 KiB (0%)
  61. Language : English
  62. Default : No
  63. Forced : No
复制代码

赤BIG灵灵狗(港)/大红狗克里弗4k Clifford.the.Big.Red.Dog.2021.2160p.WEB-DL.x265.10bit.HDR10Plus.DDP5.1.Atmos-4k电影下载

大红狗克里弗4k Clifford.the.Big.Red.Dog.2021.2160p.WEB-DL.x265.10bit.HDR10Plus.DDP5.1.Atmos【4k HDR 10.27 GB】
[Hao4k]大红狗克里弗4k Clifford.the.Big.Red.Dog.2021.2160p.WEB-DL.x265.10bit.HDR10Plus.DDP5.1.Atmos-TEPES.torrent (13.51 KB, 售价: 3 个K币)
回复

使用道具 举报

全部回复7

农夫舅舅 2

21-11-11 08:29

喜欢狗狗,肯定好看哈哈
回复 支持 1 反对 0

使用道具 举报

qzy4057 21-11-11 14:36 显示全部楼层

qzy4057 3

21-11-11 14:36

看看杜比视界的
回复 支持 反对

使用道具 举报

csfl007 21-11-12 06:23 Hao4K手机版 显示全部楼层

csfl007 4

21-11-12 06:23

看了预告片,感觉很温馨的
回复 支持 反对

使用道具 举报

亿万粉丝 5

21-11-13 15:28

看上去不错。。。
回复 支持 反对

使用道具 举报

fangpingyi 6

21-11-13 15:47

有字幕玛?
回复 支持 反对

使用道具 举报

ywf008423 21-11-13 23:14 显示全部楼层

ywf008423 7

21-11-13 23:14

谢谢分享
回复 支持 反对

使用道具 举报

ywf008423 21-11-13 23:15 显示全部楼层

ywf008423 8

21-11-13 23:15

给小朋友安排的周末电影
回复 支持 反对

使用道具 举报

   发表回复

您需要登录后才可以回帖 登录 | 立即注册

返回列表 本版积分规则

  • 发布新帖

  • 客服/帮助

  • 手机APP

  • 返回顶部