微博 微信 手机APP

Hao4K影音

电影频道
电影封面:
片  名: 新小鬼当家4k
电影分类: 动作 剧情 喜剧 
国  家: 美国 
年  代: 2021年
分 辨 率: 4K(3840x2160)
电影格式: MKV|REMUX 
画质标准: HDR 
音质编码: Dolby Digital Plus Audio 
电影声道: 5.1声道 
帧数/FPS: 24.000 帧
电影语言: 中文简体 中文繁体 英文原版 
资源大小: 11.30 GB
导  演: 丹·马泽
豆瓣评分:
中文字幕: -
剧情简介: 经典儿童喜剧片《小鬼当家》的重启新版电影《Home Sweet Home Alone》宣布档期:今年11月12日独家上线流媒体Disney+。
  该片由《乔乔兔》颇受好评的小演员Archie Yates、艾丽·坎伯尔(《伴娘》《我本坚强》)、罗伯·德兰尼(《大祸临头》)等主演,并非与老版剧情一样的翻拍,而是原创故事,片名也有所改动。片方宣传时归类为“《小鬼当家》重启拍新版”,是因为概念相似。
  老版《小鬼当家》在1990年上映,讲述麦考利·卡尔金的经典角色——小男孩“凯文”被父母不慎留在家中,他一个人玩得很嗨,然后要面对闯入的盗贼。这部新版则讲述坎伯尔和德兰尼饰演的一对夫妻要从Mercer家偷走一件贵重的传家宝,而Yates饰演的“淘气又足智多谋”的男孩正是Mercer家的孩子,他的父母都去日本旅游了,剩下他一个人保护这个家免遭窃贼。Dan Mazer(《波拉特2》)执导,SNL的编剧麦基·戴和Streeter Seidell写剧本
小鬼当家重启版/新小鬼当家4k Home.Sweet.Home.Alone.2021.2160p.DSNP.WEB-DL.x265.10bit.HDR.DDP5.1.Atmos-4k电影信息
  1. Video
  2. ID : 1
  3. Format : HEVC
  4. Format/Info : High Efficiency Video Coding
  5. Format profile : Main 10@L5@High
  6. HDR format : SMPTE ST 2086, HDR10 compatible
  7. Codec ID : V_MPEGH/ISO/HEVC
  8. Duration : 1 h 33 min
  9. Bit rate : 16.6 Mb/s
  10. Width : 3 840 pixels
  11. Height : 2 160 pixels
  12. Display aspect ratio : 16:9
  13. Frame rate mode : Constant
  14. Frame rate : 24.000 FPS
  15. Color space : YUV
  16. Chroma subsampling : 4:2:0
  17. Bit depth : 10 bits
  18. Bits/(Pixel*Frame) : 0.083
  19. Stream size : 10.8 GiB (96%)
  20. Default : Yes
  21. Forced : No
  22. Color range : Limited
  23. Color primaries : BT.2020
  24. Transfer characteristics : PQ
  25. Matrix coefficients : BT.2020 non-constant
  26. Mastering display color primaries : Display P3
  27. Mastering display luminance : min: 0.0001 cd/m2, max: 1000 cd/m2

  28. Audio
  29. ID : 2
  30. Format : E-AC-3 JOC
  31. Format/Info : Enhanced AC-3 with Joint Object Coding
  32. Commercial name : Dolby Digital Plus with Dolby Atmos
  33. Codec ID : A_EAC3
  34. Duration : 1 h 33 min
  35. Bit rate mode : Constant
  36. Bit rate : 768 kb/s
  37. Channel(s) : 6 channels
  38. Channel layout : L R C LFE Ls Rs
  39. Sampling rate : 48.0 kHz
  40. Frame rate : 31.250 FPS (1536 SPF)
  41. Compression mode : Lossy
  42. Stream size : 512 MiB (4%)
  43. Language : English
  44. Service kind : Complete Main
  45. Default : Yes
  46. Forced : No
  47. Complexity index : 16
  48. Number of dynamic objects : 15
  49. Bed channel count : 1 channel
  50. Bed channel configuration : LFE

  51. Text #1
  52. ID : 3
  53. Format : UTF-8
  54. Codec ID : S_TEXT/UTF8
  55. Codec ID/Info : UTF-8 Plain Text
  56. Duration : 1 h 32 min
  57. Bit rate : 53 b/s
  58. Count of elements : 1246
  59. Stream size : 36.5 KiB (0%)
  60. Title : Brazilian
  61. Language : Portuguese
  62. Default : No
  63. Forced : No

  64. Text #2
  65. ID : 4
  66. Format : UTF-8
  67. Codec ID : S_TEXT/UTF8
  68. Codec ID/Info : UTF-8 Plain Text
  69. Duration : 1 h 24 min
  70. Bit rate : 67 b/s
  71. Count of elements : 1267
  72. Stream size : 41.3 KiB (0%)
  73. Language : English
  74. Default : No
  75. Forced : No

  76. Text #3
  77. ID : 5
  78. Format : UTF-8
  79. Codec ID : S_TEXT/UTF8
  80. Codec ID/Info : UTF-8 Plain Text
  81. Duration : 1 h 24 min
  82. Bit rate : 80 b/s
  83. Count of elements : 1569
  84. Stream size : 49.8 KiB (0%)
  85. Title : SDH
  86. Language : English
  87. Default : No
  88. Forced : No

  89. Text #4
  90. ID : 6
  91. Format : UTF-8
  92. Codec ID : S_TEXT/UTF8
  93. Codec ID/Info : UTF-8 Plain Text
  94. Duration : 1 h 32 min
  95. Bit rate : 57 b/s
  96. Count of elements : 1247
  97. Stream size : 38.7 KiB (0%)
  98. Language : Danish
  99. Default : No
  100. Forced : No

  101. Text #5
  102. ID : 7
  103. Format : UTF-8
  104. Codec ID : S_TEXT/UTF8
  105. Codec ID/Info : UTF-8 Plain Text
  106. Duration : 1 h 32 min
  107. Bit rate : 58 b/s
  108. Count of elements : 1240
  109. Stream size : 39.7 KiB (0%)
  110. Language : German
  111. Default : No
  112. Forced : No

  113. Text #6
  114. ID : 8
  115. Format : UTF-8
  116. Codec ID : S_TEXT/UTF8
  117. Codec ID/Info : UTF-8 Plain Text
  118. Duration : 1 h 32 min
  119. Bit rate : 54 b/s
  120. Count of elements : 1245
  121. Stream size : 36.9 KiB (0%)
  122. Title : Latin American
  123. Language : Spanish
  124. Default : No
  125. Forced : No

  126. Text #7
  127. ID : 9
  128. Format : UTF-8
  129. Codec ID : S_TEXT/UTF8
  130. Codec ID/Info : UTF-8 Plain Text
  131. Duration : 1 h 32 min
  132. Bit rate : 55 b/s
  133. Count of elements : 1264
  134. Stream size : 38.0 KiB (0%)
  135. Title : European
  136. Language : Spanish
  137. Default : No
  138. Forced : No

  139. Text #8
  140. ID : 10
  141. Format : UTF-8
  142. Codec ID : S_TEXT/UTF8
  143. Codec ID/Info : UTF-8 Plain Text
  144. Duration : 1 h 32 min
  145. Bit rate : 56 b/s
  146. Count of elements : 1264
  147. Stream size : 38.5 KiB (0%)
  148. Language : Finnish
  149. Default : No
  150. Forced : No

  151. Text #9
  152. ID : 11
  153. Format : UTF-8
  154. Codec ID : S_TEXT/UTF8
  155. Codec ID/Info : UTF-8 Plain Text
  156. Duration : 1 h 32 min
  157. Bit rate : 55 b/s
  158. Count of elements : 1237
  159. Stream size : 37.4 KiB (0%)
  160. Language : French
  161. Default : No
  162. Forced : No

  163. Text #10
  164. ID : 12
  165. Format : UTF-8
  166. Codec ID : S_TEXT/UTF8
  167. Codec ID/Info : UTF-8 Plain Text
  168. Duration : 1 h 32 min
  169. Bit rate : 52 b/s
  170. Count of elements : 1243
  171. Stream size : 35.8 KiB (0%)
  172. Language : Italian
  173. Default : No
  174. Forced : No

  175. Text #11
  176. ID : 13
  177. Format : UTF-8
  178. Codec ID : S_TEXT/UTF8
  179. Codec ID/Info : UTF-8 Plain Text
  180. Duration : 1 h 32 min
  181. Bit rate : 48 b/s
  182. Count of elements : 1196
  183. Stream size : 32.8 KiB (0%)
  184. Language : Japanese
  185. Default : No
  186. Forced : No

  187. Text #12
  188. ID : 14
  189. Format : UTF-8
  190. Codec ID : S_TEXT/UTF8
  191. Codec ID/Info : UTF-8 Plain Text
  192. Duration : 1 h 32 min
  193. Bit rate : 69 b/s
  194. Count of elements : 1282
  195. Stream size : 47.0 KiB (0%)
  196. Language : Korean
  197. Default : No
  198. Forced : No

  199. Text #13
  200. ID : 15
  201. Format : UTF-8
  202. Codec ID : S_TEXT/UTF8
  203. Codec ID/Info : UTF-8 Plain Text
  204. Duration : 1 h 32 min
  205. Bit rate : 47 b/s
  206. Count of elements : 1066
  207. Stream size : 32.0 KiB (0%)
  208. Language : Dutch
  209. Default : No
  210. Forced : No

  211. Text #14
  212. ID : 16
  213. Format : UTF-8
  214. Codec ID : S_TEXT/UTF8
  215. Codec ID/Info : UTF-8 Plain Text
  216. Duration : 1 h 32 min
  217. Bit rate : 51 b/s
  218. Count of elements : 1216
  219. Stream size : 34.9 KiB (0%)
  220. Language : Norwegian
  221. Default : No
  222. Forced : No

  223. Text #15
  224. ID : 17
  225. Format : UTF-8
  226. Codec ID : S_TEXT/UTF8
  227. Codec ID/Info : UTF-8 Plain Text
  228. Duration : 1 h 32 min
  229. Bit rate : 51 b/s
  230. Count of elements : 1266
  231. Stream size : 34.8 KiB (0%)
  232. Language : Polish
  233. Default : No
  234. Forced : No

  235. Text #16
  236. ID : 18
  237. Format : UTF-8
  238. Codec ID : S_TEXT/UTF8
  239. Codec ID/Info : UTF-8 Plain Text
  240. Duration : 1 h 32 min
  241. Bit rate : 57 b/s
  242. Count of elements : 1262
  243. Stream size : 38.9 KiB (0%)
  244. Language : Portuguese
  245. Default : No
  246. Forced : No

  247. Text #17
  248. ID : 19
  249. Format : UTF-8
  250. Codec ID : S_TEXT/UTF8
  251. Codec ID/Info : UTF-8 Plain Text
  252. Duration : 1 h 32 min
  253. Bit rate : 56 b/s
  254. Count of elements : 1271
  255. Stream size : 38.5 KiB (0%)
  256. Language : Swedish
  257. Default : No
  258. Forced : No

  259. Text #18
  260. ID : 20
  261. Format : UTF-8
  262. Codec ID : S_TEXT/UTF8
  263. Codec ID/Info : UTF-8 Plain Text
  264. Duration : 1 h 32 min
  265. Bit rate : 58 b/s
  266. Count of elements : 1283
  267. Stream size : 39.9 KiB (0%)
  268. Title : Hong Kong
  269. Language : Chinese
  270. Default : No
  271. Forced : No

  272. Text #19
  273. ID : 21
  274. Format : UTF-8
  275. Codec ID : S_TEXT/UTF8
  276. Codec ID/Info : UTF-8 Plain Text
  277. Duration : 1 h 32 min
  278. Bit rate : 55 b/s
  279. Count of elements : 1283
  280. Stream size : 37.9 KiB (0%)
  281. Title : Simplified
  282. Language : Chinese
  283. Default : No
  284. Forced : No

  285. Text #20
  286. ID : 22
  287. Format : UTF-8
  288. Codec ID : S_TEXT/UTF8
  289. Codec ID/Info : UTF-8 Plain Text
  290. Duration : 1 h 32 min
  291. Bit rate : 58 b/s
  292. Count of elements : 1283
  293. Stream size : 39.4 KiB (0%)
  294. Title : Traditional
  295. Language : Chinese
  296. Default : No
  297. Forced : No

  298. Menu
  299. 01:25:00.250 : en:Chapter 1
  300. 01:25:10.125 : en:Credits
  301. 01:33:12.250 : en:Chapter 2
复制代码

小鬼当家重启版/新小鬼当家4k Home.Sweet.Home.Alone.2021.2160p.DSNP.WEB-DL.x265.10bit.HDR.DDP5.1.Atmos-4k电影下载

新小鬼当家4k Home.Sweet.Home.Alone.2021.2160p.DSNP.WEB-DL.x265.10bit.HDR.DDP5.1.Atmos-简繁中字【4k HDR 11.30 GB】
[Hao4k]新小鬼当家4k Home.Sweet.Home.Alone.2021.2160p.DSNP.WEB-DL.x265.10bit.HDR.DDP5.1.Atmos-SiGLA.torrent (14.81 KB, 售价: 3 个K币)
回复

使用道具 举报

   发表回复

您需要登录后才可以回帖 登录 | 立即注册

返回列表 本版积分规则

  • 发布新帖

  • 客服/帮助

  • 手机APP

  • 返回顶部