微博 微信 手机APP

Hao4K影音

电影频道
电影封面:
片  名: 再见,阿贝托4k
电影分类: 喜剧 动画 
国  家: 美国 
年  代: 2021年
分 辨 率: 4K(3840x2160)
电影格式: MKV|REMUX 
画质标准: HDR Dolby Vision SDR 
音质编码: Dolby Digital Plus Audio 
电影声道: 5.1声道 
帧数/FPS: 23.976 帧
电影语言: 中文简体 中文繁体 英文原版 
资源大小: 1.08 GB
导  演: McKenna Harris
豆瓣评分: 6.8 分
中文字幕: /thread-64310-1-1.html
剧情简介: 《夏日友晴天》番外短片,故事聚焦阿贝托在维埃拉小镇的生活。
艾伯托的新生活/再见,阿贝托4k.Ciao.Alberto.2021.2160p.WEB-DL.x265.10bit.HDR.DDP5.1.Atmos-4k短片电影信息
  1. Video
  2. ID : 1
  3. Format : HEVC
  4. Format/Info : High Efficiency Video Coding
  5. Format profile : Main 10@L5@Main
  6. Codec ID : V_MPEGH/ISO/HEVC
  7. Duration : 6 min 37 s
  8. Bit rate : 22.6 Mb/s
  9. Width : 3 840 pixels
  10. Height : 2 160 pixels
  11. Display aspect ratio : 16:9
  12. Frame rate mode : Constant
  13. Frame rate : 23.976 (24000/1001) FPS
  14. Color space : YUV
  15. Chroma subsampling : 4:2:0
  16. Bit depth : 10 bits
  17. Bits/(Pixel*Frame) : 0.114
  18. Stream size : 1.04 GiB (97%)
  19. Writing library : x265 3.5:[Linux][GCC 9.3.0][64 bit] 10bit
  20. Encoding settings : cpuid=1111039 / frame-threads=1 / wpp / no-pmode / no-pme / no-psnr / no-ssim / log-level=2 / input-csp=1 / input-res=3840x2160 / interlace=0 / total-frames=0 / level-idc=50 / high-tier=0 / uhd-bd=0 / ref=3 / no-allow-non-conformance / repeat-headers / annexb / no-aud / no-hrd / info / hash=0 / no-temporal-layers / no-open-gop / min-keyint=48 / keyint=48 / gop-lookahead=0 / bframes=2 / b-adapt=0 / b-pyramid / bframe-bias=0 / rc-lookahead=48 / lookahead-slices=8 / scenecut=0 / hist-scenecut=0 / radl=0 / no-splice / no-intra-refresh / ctu=32 / min-cu-size=8 / no-rect / no-amp / max-tu-size=16 / tu-inter-depth=2 / tu-intra-depth=2 / limit-tu=0 / rdoq-level=1 / dynamic-rd=0.00 / no-ssim-rd / signhide / no-tskip / nr-intra=0 / nr-inter=0 / no-constrained-intra / no-strong-intra-smoothing / max-merge=3 / limit-refs=1 / no-limit-modes / me=1 / subme=2 / merange=44 / temporal-mvp / no-frame-dup / no-hme / weightp / no-weightb / no-analyze-src-pics / deblock=0:0 / no-sao / no-sao-non-deblock / rd=4 / selective-sao=0 / early-skip / rskip / no-fast-intra / no-tskip-fast / no-cu-lossless / b-intra / no-splitrd-skip / rdpenalty=1 / psy-rd=1.60 / psy-rdoq=5.00 / no-rd-refine / no-lossless / cbqpoffs=0 / crqpoffs=0 / rc=abr / bitrate=23000 / qcomp=0.75 / qpstep=4 / stats-write=0 / stats-read=0 / vbv-maxrate=25000 / vbv-bufsize=25000 / vbv-init=0.9 / ipratio=1.40 / pbratio=1.30 / aq-mode=3 / aq-strength=1.00 / no-cutree / zone-count=0 / no-strict-cbr / qg-size=32 / no-rc-grain / qpmax=69 / qpmin=0 / no-const-vbv / sar=1 / overscan=0 / videoformat=5 / range=0 / colorprim=9 / transfer=16 / colormatrix=9 / chromaloc=0 / display-window=0 / cll=0,0 / min-luma=0 / max-luma=1023 / log2-max-poc-lsb=8 / vui-timing-info / vui-hrd-info / slices=1 / no-opt-qp-pps / no-opt-ref-list-length-pps / no-multi-pass-opt-rps / scenecut-bias=0.00 / hist-threshold=0.01 / no-opt-cu-delta-qp / no-aq-motion / no-hdr10 / hdr10-opt / no-dhdr10-opt / no-idr-recovery-sei / analysis-reuse-level=0 / analysis-save-reuse-level=0 / analysis-load-reuse-level=0 / scale-factor=0 / refine-intra=0 / refine-inter=0 / refine-mv=1 / refine-ctu-distortion=0 / no-limit-sao / ctu-info=0 / no-lowpass-dct / refine-analysis-type=0 / copy-pic=1 / max-ausize-factor=1.0 / no-dynamic-refine / no-single-sei / no-hevc-aq / no-svt / no-field / qp-adaptation-range=1.00 / no-scenecut-aware-qpconformance-window-offsets / right=0 / bottom=0
  21. Default : Yes
  22. Forced : No
  23. Color range : Limited
  24. Color primaries : BT.2020
  25. Transfer characteristics : PQ
  26. Matrix coefficients : BT.2020 non-constant

  27. Audio
  28. ID : 2
  29. Format : E-AC-3 JOC
  30. Format/Info : Enhanced AC-3 with Joint Object Coding
  31. Commercial name : Dolby Digital Plus with Dolby Atmos
  32. Codec ID : A_EAC3
  33. Duration : 6 min 37 s
  34. Bit rate mode : Constant
  35. Bit rate : 768 kb/s
  36. Channel(s) : 6 channels
  37. Channel layout : L R C LFE Ls Rs
  38. Sampling rate : 48.0 kHz
  39. Frame rate : 31.250 FPS (1536 SPF)
  40. Compression mode : Lossy
  41. Delay relative to video : 3 s 3 ms
  42. Stream size : 36.4 MiB (3%)
  43. Language : English
  44. Service kind : Complete Main
  45. Default : Yes
  46. Forced : No
  47. Complexity index : 16
  48. Number of dynamic objects : 15
  49. Bed channel count : 1 channel
  50. Bed channel configuration : LFE

  51. Text #1
  52. ID : 3
  53. Format : UTF-8
  54. Codec ID : S_TEXT/UTF8
  55. Codec ID/Info : UTF-8 Plain Text
  56. Duration : 5 min 35 s
  57. Bit rate : 45 b/s
  58. Count of elements : 73
  59. Stream size : 1.86 KiB (0%)
  60. Language : English
  61. Default : No
  62. Forced : No

  63. Text #2
  64. ID : 4
  65. Format : UTF-8
  66. Codec ID : S_TEXT/UTF8
  67. Codec ID/Info : UTF-8 Plain Text
  68. Duration : 5 min 45 s
  69. Bit rate : 58 b/s
  70. Count of elements : 100
  71. Stream size : 2.46 KiB (0%)
  72. Title : SDH
  73. Language : English
  74. Default : No
  75. Forced : No

  76. Text #3
  77. ID : 5
  78. Format : UTF-8
  79. Codec ID : S_TEXT/UTF8
  80. Codec ID/Info : UTF-8 Plain Text
  81. Duration : 6 min 24 s
  82. Bit rate : 37 b/s
  83. Count of elements : 52
  84. Stream size : 1.77 KiB (0%)
  85. Language : Danish
  86. Default : No
  87. Forced : No

  88. Text #4
  89. ID : 6
  90. Format : UTF-8
  91. Codec ID : S_TEXT/UTF8
  92. Codec ID/Info : UTF-8 Plain Text
  93. Duration : 6 min 24 s
  94. Bit rate : 38 b/s
  95. Count of elements : 70
  96. Stream size : 1.82 KiB (0%)
  97. Language : German
  98. Default : No
  99. Forced : No

  100. Text #5
  101. ID : 7
  102. Format : UTF-8
  103. Codec ID : S_TEXT/UTF8
  104. Codec ID/Info : UTF-8 Plain Text
  105. Duration : 6 min 24 s
  106. Bit rate : 41 b/s
  107. Count of elements : 69
  108. Stream size : 1.94 KiB (0%)
  109. Title : Latin American
  110. Language : Spanish
  111. Default : No
  112. Forced : No

  113. Text #6
  114. ID : 8
  115. Format : UTF-8
  116. Codec ID : S_TEXT/UTF8
  117. Codec ID/Info : UTF-8 Plain Text
  118. Duration : 6 min 24 s
  119. Bit rate : 40 b/s
  120. Count of elements : 67
  121. Stream size : 1.90 KiB (0%)
  122. Language : Spanish
  123. Default : No
  124. Forced : No

  125. Text #7
  126. ID : 9
  127. Format : UTF-8
  128. Codec ID : S_TEXT/UTF8
  129. Codec ID/Info : UTF-8 Plain Text
  130. Duration : 6 min 24 s
  131. Bit rate : 38 b/s
  132. Count of elements : 67
  133. Stream size : 1.81 KiB (0%)
  134. Language : Finnish
  135. Default : No
  136. Forced : No

  137. Text #8
  138. ID : 10
  139. Format : UTF-8
  140. Codec ID : S_TEXT/UTF8
  141. Codec ID/Info : UTF-8 Plain Text
  142. Duration : 6 min 24 s
  143. Bit rate : 40 b/s
  144. Count of elements : 59
  145. Stream size : 1.91 KiB (0%)
  146. Language : French
  147. Default : No
  148. Forced : No

  149. Text #9
  150. ID : 11
  151. Format : UTF-8
  152. Codec ID : S_TEXT/UTF8
  153. Codec ID/Info : UTF-8 Plain Text
  154. Duration : 6 min 24 s
  155. Bit rate : 40 b/s
  156. Count of elements : 67
  157. Stream size : 1.92 KiB (0%)
  158. Language : Indonesian
  159. Default : No
  160. Forced : No

  161. Text #10
  162. ID : 12
  163. Format : UTF-8
  164. Codec ID : S_TEXT/UTF8
  165. Codec ID/Info : UTF-8 Plain Text
  166. Duration : 6 min 24 s
  167. Bit rate : 39 b/s
  168. Count of elements : 64
  169. Stream size : 1.84 KiB (0%)
  170. Language : Italian
  171. Default : No
  172. Forced : No

  173. Text #11
  174. ID : 13
  175. Format : UTF-8
  176. Codec ID : S_TEXT/UTF8
  177. Codec ID/Info : UTF-8 Plain Text
  178. Duration : 6 min 24 s
  179. Bit rate : 38 b/s
  180. Count of elements : 62
  181. Stream size : 1.82 KiB (0%)
  182. Language : Japanese
  183. Default : No
  184. Forced : No

  185. Text #12
  186. ID : 14
  187. Format : UTF-8
  188. Codec ID : S_TEXT/UTF8
  189. Codec ID/Info : UTF-8 Plain Text
  190. Duration : 6 min 24 s
  191. Bit rate : 49 b/s
  192. Count of elements : 69
  193. Stream size : 2.35 KiB (0%)
  194. Language : Korean
  195. Default : No
  196. Forced : No

  197. Text #13
  198. ID : 15
  199. Format : UTF-8
  200. Codec ID : S_TEXT/UTF8
  201. Codec ID/Info : UTF-8 Plain Text
  202. Duration : 6 min 24 s
  203. Bit rate : 41 b/s
  204. Count of elements : 67
  205. Stream size : 1.94 KiB (0%)
  206. Language : Malay
  207. Default : No
  208. Forced : No

  209. Text #14
  210. ID : 16
  211. Format : UTF-8
  212. Codec ID : S_TEXT/UTF8
  213. Codec ID/Info : UTF-8 Plain Text
  214. Duration : 6 min 24 s
  215. Bit rate : 36 b/s
  216. Count of elements : 67
  217. Stream size : 1.71 KiB (0%)
  218. Language : Norwegian Bokmal
  219. Default : No
  220. Forced : No

  221. Text #15
  222. ID : 17
  223. Format : UTF-8
  224. Codec ID : S_TEXT/UTF8
  225. Codec ID/Info : UTF-8 Plain Text
  226. Duration : 6 min 24 s
  227. Bit rate : 38 b/s
  228. Count of elements : 66
  229. Stream size : 1.80 KiB (0%)
  230. Language : Dutch
  231. Default : No
  232. Forced : No

  233. Text #16
  234. ID : 18
  235. Format : UTF-8
  236. Codec ID : S_TEXT/UTF8
  237. Codec ID/Info : UTF-8 Plain Text
  238. Duration : 6 min 24 s
  239. Bit rate : 37 b/s
  240. Count of elements : 67
  241. Stream size : 1.77 KiB (0%)
  242. Language : Polish
  243. Default : No
  244. Forced : No

  245. Text #17
  246. ID : 19
  247. Format : UTF-8
  248. Codec ID : S_TEXT/UTF8
  249. Codec ID/Info : UTF-8 Plain Text
  250. Duration : 6 min 24 s
  251. Bit rate : 40 b/s
  252. Count of elements : 69
  253. Stream size : 1.92 KiB (0%)
  254. Title : Brazilian
  255. Language : Portuguese
  256. Default : No
  257. Forced : No

  258. Text #18
  259. ID : 20
  260. Format : UTF-8
  261. Codec ID : S_TEXT/UTF8
  262. Codec ID/Info : UTF-8 Plain Text
  263. Duration : 5 min 46 s
  264. Bit rate : 70 b/s
  265. Count of elements : 114
  266. Stream size : 2.97 KiB (0%)
  267. Title : Brazilian (SDH)
  268. Language : Portuguese
  269. Default : No
  270. Forced : No

  271. Text #19
  272. ID : 21
  273. Format : UTF-8
  274. Codec ID : S_TEXT/UTF8
  275. Codec ID/Info : UTF-8 Plain Text
  276. Duration : 6 min 24 s
  277. Bit rate : 39 b/s
  278. Count of elements : 67
  279. Stream size : 1.87 KiB (0%)
  280. Language : Portuguese
  281. Default : No
  282. Forced : No

  283. Text #20
  284. ID : 22
  285. Format : UTF-8
  286. Codec ID : S_TEXT/UTF8
  287. Codec ID/Info : UTF-8 Plain Text
  288. Duration : 6 min 24 s
  289. Bit rate : 38 b/s
  290. Count of elements : 64
  291. Stream size : 1.80 KiB (0%)
  292. Language : Swedish
  293. Default : No
  294. Forced : No

  295. Text #21
  296. ID : 23
  297. Format : UTF-8
  298. Codec ID : S_TEXT/UTF8
  299. Codec ID/Info : UTF-8 Plain Text
  300. Duration : 6 min 24 s
  301. Bit rate : 97 b/s
  302. Count of elements : 67
  303. Stream size : 4.60 KiB (0%)
  304. Language : Thai
  305. Default : No
  306. Forced : No

  307. Text #22
  308. ID : 24
  309. Format : UTF-8
  310. Codec ID : S_TEXT/UTF8
  311. Codec ID/Info : UTF-8 Plain Text
  312. Duration : 6 min 24 s
  313. Bit rate : 36 b/s
  314. Count of elements : 69
  315. Stream size : 1.71 KiB (0%)
  316. Title : Traditional
  317. Language : Chinese
  318. Default : No
  319. Forced : No

  320. Text #23
  321. ID : 25
  322. Format : UTF-8
  323. Codec ID : S_TEXT/UTF8
  324. Codec ID/Info : UTF-8 Plain Text
  325. Duration : 6 min 24 s
  326. Bit rate : 38 b/s
  327. Count of elements : 69
  328. Stream size : 1.80 KiB (0%)
  329. Title : Traditional (Hong Kong)
  330. Language : Chinese
  331. Default : No
  332. Forced : No

  333. Menu
  334. 00:06:38.607 : Credits
复制代码

艾伯托的新生活/再见,阿贝托4k.Ciao.Alberto.2021.2160p.WEB-DL.x265.10bit.HDR.DDP5.1.Atmos-4k短片电影下载

再见,阿贝托4k.Ciao.Alberto.2021.2160p.WEB-DL.x265.10bit.HDR.DDP5.1.Atmos【4k HDR 1.08 GB】
[Hao4k]再见,阿贝托4k Ciao.Alberto.2021.2160p.WEB-DL.x265.10bit.HDR.DDP5.1.Atmos-TEPES.torrent (11.46 KB, 售价: 3 个K币)
回复

使用道具 举报

   发表回复

您需要登录后才可以回帖 登录 | 立即注册

返回列表 本版积分规则

  • 发布新帖

  • 客服/帮助

  • 手机APP

  • 返回顶部