微博 微信 手机APP

Hao4K影音

电影频道
电影封面:
片  名: 猎杀时刻4K
电影分类: 动作 惊悚 
国  家: 美国 
年  代: 2021年
分 辨 率: 4K(3840x2160)
电影格式: MKV|REMUX 
画质标准: SDR 
音质编码: Dolby Digital Plus Audio 
电影声道: 5.1声道 
帧数/FPS: 23.976 帧
电影语言: 英文原版 
资源大小: 8.11 GB
导  演: Edward Drake
豆瓣评分:
中文字幕: -
剧情简介: Five elite hunters pay to hunt down a man on a deserted island, only to find themselves becoming the prey.
猎杀时刻4K.Apex.2021.2160p.WEB-DL.x265.10bit.SDR.DD5.1-4k电影信息
  1. Video
  2. ID : 1
  3. Format : HEVC
  4. Format/Info : High Efficiency Video Coding
  5. Format profile : Main 10@L5@High
  6. Codec ID : V_MPEGH/ISO/HEVC
  7. Duration : 1 h 33 min
  8. Bit rate : 12.0 Mb/s
  9. Width : 3 832 pixels
  10. Height : 1 592 pixels
  11. Display aspect ratio : 2.40:1
  12. Frame rate mode : Constant
  13. Frame rate : 23.976 FPS
  14. Color space : YUV
  15. Chroma subsampling : 4:2:0
  16. Bit depth : 10 bits
  17. Bits/(Pixel*Frame) : 0.082
  18. Stream size : 7.86 GiB (97%)
  19. Language : English
  20. Default : Yes
  21. Forced : No
  22. Color range : Limited
  23. Color primaries : BT.709
  24. Transfer characteristics : BT.709
  25. Matrix coefficients : BT.709

  26. Audio
  27. ID : 2
  28. Format : AC-3
  29. Format/Info : Audio Coding 3
  30. Commercial name : Dolby Digital
  31. Codec ID : A_AC3
  32. Duration : 1 h 33 min
  33. Bit rate mode : Constant
  34. Bit rate : 384 kb/s
  35. Channel(s) : 6 channels
  36. Channel layout : L R C LFE Ls Rs
  37. Sampling rate : 48.0 kHz
  38. Frame rate : 31.250 FPS (1536 SPF)
  39. Compression mode : Lossy
  40. Stream size : 257 MiB (3%)
  41. Title : English
  42. Language : English
  43. Service kind : Complete Main
  44. Default : Yes
  45. Forced : No

  46. Text
  47. ID : 3
  48. Format : UTF-8
  49. Codec ID : S_TEXT/UTF8
  50. Codec ID/Info : UTF-8 Plain Text
  51. Duration : 1 h 28 min
  52. Bit rate : 50 b/s
  53. Count of elements : 1140
  54. Stream size : 32.6 KiB (0%)
  55. Language : English
  56. Default : Yes
  57. Forced : No
复制代码

猎杀时刻4K.Apex.2021.2160p.WEB-DL.x265.10bit.SDR.DD5.1-4K电影下载

猎杀时刻4K.Apex.2021.2160p.WEB-DL.x265.10bit.SDR.DD5.1【4K SDR 8.81 GB】
[Hao4K]猎杀时刻4K.Apex.2021.2160p.WEB-DL.x265.10bit.SDR.DD5.1-NOGRP.torrent (20.89 KB, 售价: 3 个K币)
回复

使用道具 举报

全部回复14

chly228 21-11-12 14:55 显示全部楼层

chly228 2

21-11-12 14:55

没字幕呀
回复 支持 1 反对 0

使用道具 举报

龙与少年游 3

21-11-13 11:19

这个封面的apex dna动了
回复 支持 1 反对 0

使用道具 举报

HumanTarget 4

21-11-13 21:27

布鲁斯威利斯最近几年跟尼古拉斯凯奇有的一拼,也是烂片不断,不知道这部如何啊
回复 支持 2 反对 0

使用道具 举报

joseph1118 5

21-11-14 21:40

看不到评分 不敢下啊
回复 支持 反对

使用道具 举报

dzyas 21-11-16 10:39 显示全部楼层

dzyas 6

21-11-16 10:39

没看过,谢谢分享
回复 支持 反对

使用道具 举报

Elsapoo 21-11-16 11:57 显示全部楼层

Elsapoo 7

21-11-16 11:57

这是部烂片来着,IMDB上也只有3.5分。
回复 支持 反对

使用道具 举报

ZhangC 21-11-17 13:36 显示全部楼层

ZhangC 8

21-11-17 13:36

没字幕,看不懂啊
回复 支持 反对

使用道具 举报

hzc19862000 9

21-11-17 14:08

字幕去哪里弄呢
回复 支持 反对

使用道具 举报

叫我小刘就行了 10

21-11-17 22:34

HumanTarget 发表于 21-11-13 21:27
布鲁斯威利斯最近几年跟尼古拉斯凯奇有的一拼,也是烂片不断,不知道这部如何啊

也是个烂片!
回复 支持 1 反对 0

使用道具 举报

xixihahan97 11

21-11-18 10:35

哈哈哈这个评分,有点慌。
回复 支持 反对

使用道具 举报

sunapple 21-11-18 12:42 显示全部楼层

sunapple 12

21-11-18 12:42

怎么只有8g
回复 支持 反对

使用道具 举报

yflsss 21-11-21 08:45 显示全部楼层

yflsss 13

21-11-21 08:45

感谢资源发布!不过这个片子是真的烂,布鲁斯威利斯现在就该休息了,还演动作片,不太合适了
回复 支持 1 反对 0

使用道具 举报

风的自由 14

21-11-21 11:50

布鲁老头现在成烂片之王了,最近几年参演的电影都看睡着了
回复 支持 1 反对 0

使用道具 举报

wxl1100 21-11-22 03:07 显示全部楼层

wxl1100 15

21-11-22 03:07

龙与少年游 发表于 21-11-13 11:19
这个封面的apex dna动了

我是布洛特亨德尔,我重伤倒地了
回复 支持 反对

使用道具 举报

   发表回复

您需要登录后才可以回帖 登录 | 立即注册

返回列表 本版积分规则

  • 发布新帖

  • 客服/帮助

  • 手机APP

  • 返回顶部