微博 微信 手机APP

Hao4K影音

电影频道
电影封面:
片  名: 洛奇4 4k
电影分类: 动作 剧情 其他 
国  家: 美国 
年  代: 80年代
分 辨 率: 4K(3840x2160)
电影格式: MKV|REMUX 
画质标准: HDR Dolby Vision SDR 
音质编码: Dolby Digital Plus Audio 
电影声道: 5.1声道 
帧数/FPS: 23.976 帧
电影语言: 英文原版 
资源大小: 16.51 GB
导  演: 西尔维斯特·史泰龙
豆瓣评分: 7.7 分
中文字幕: -
剧情简介: 1985年,那时正是美苏两极争霸越演越烈的年代,史泰龙自导自演的洛基系列也出到了第四集,这一系列影片旨在振奋人心、宣扬美国精神。这一集讲述的是洛基(西尔维斯特•史泰龙 Sylvester Stallone 饰)的好友前美国拳王到苏联出战他们研制的拳击机械人,不敌对手最终身遭不测。为了帮好友复仇和维护国家荣誉,洛基决定再次出马。
  出战前,洛基进行了一系列精心的准备工作,他深入到大自然,利用自然的艰苦条件刻苦训练。当一切准备妥当,洛基和苏联拳王――拳击机械人的决斗展开了!
洛奇第四集龙拳虎威 / 洛基4:天下无敌/洛奇4 4k Rocky.IV.1985.Ultimate.DC.2160p.WEB-DL.x265.10bit.HDR.DDP5.1-4k电影信息
  1. Video
  2. ID : 1
  3. Format : HEVC
  4. Format/Info : High Efficiency Video Coding
  5. Format profile : Main 10@L5@High
  6. HDR format : SMPTE ST 2086, HDR10 compatible
  7. Codec ID : V_MPEGH/ISO/HEVC
  8. Duration : 1 h 33 min
  9. Bit rate : 24.4 Mb/s
  10. Width : 3 832 pixels
  11. Height : 1 600 pixels
  12. Display aspect ratio : 2.40:1
  13. Frame rate mode : Constant
  14. Frame rate : 23.976 FPS
  15. Color space : YUV
  16. Chroma subsampling : 4:2:0 (Type 2)
  17. Bit depth : 10 bits
  18. Bits/(Pixel*Frame) : 0.166
  19. Stream size : 16.0 GiB (97%)
  20. Default : Yes
  21. Forced : No
  22. Color range : Limited
  23. Color primaries : BT.2020
  24. Transfer characteristics : PQ
  25. Matrix coefficients : BT.2020 non-constant
  26. Mastering display color primaries : BT.2020
  27. Mastering display luminance : min: 0.0050 cd/m2, max: 1000 cd/m2
  28. Maximum Content Light Level : 10000 cd/m2
  29. Maximum Frame-Average Light Level : 4048 cd/m2

  30. Audio
  31. ID : 2
  32. Format : E-AC-3
  33. Format/Info : Enhanced AC-3
  34. Commercial name : Dolby Digital Plus
  35. Codec ID : A_EAC3
  36. Duration : 1 h 33 min
  37. Bit rate mode : Constant
  38. Bit rate : 640 kb/s
  39. Channel(s) : 6 channels
  40. Channel layout : L R C LFE Ls Rs
  41. Sampling rate : 48.0 kHz
  42. Frame rate : 31.250 FPS (1536 SPF)
  43. Compression mode : Lossy
  44. Stream size : 430 MiB (3%)
  45. Language : English
  46. Service kind : Complete Main
  47. Default : Yes
  48. Forced : No

  49. Text #1
  50. ID : 3
  51. Format : UTF-8
  52. Codec ID : S_TEXT/UTF8
  53. Codec ID/Info : UTF-8 Plain Text
  54. Duration : 7 min 35 s
  55. Bit rate : 5 b/s
  56. Count of elements : 15
  57. Stream size : 321 Bytes (0%)
  58. Title : Forced
  59. Language : English
  60. Default : Yes
  61. Forced : Yes

  62. Text #2
  63. ID : 4
  64. Format : UTF-8
  65. Codec ID : S_TEXT/UTF8
  66. Codec ID/Info : UTF-8 Plain Text
  67. Duration : 1 h 26 min
  68. Bit rate : 53 b/s
  69. Count of elements : 1011
  70. Stream size : 34.0 KiB (0%)
  71. Language : English
  72. Default : No
  73. Forced : No

  74. Text #3
  75. ID : 5
  76. Format : UTF-8
  77. Codec ID : S_TEXT/UTF8
  78. Codec ID/Info : UTF-8 Plain Text
  79. Duration : 1 h 26 min
  80. Bit rate : 64 b/s
  81. Count of elements : 1166
  82. Stream size : 40.9 KiB (0%)
  83. Title : SDH
  84. Language : English
  85. Default : No
  86. Forced : No

  87. Menu
  88. 00:00:00.000 : Chapter 1
  89. 00:07:21.000 : Chapter 2
  90. 00:15:46.042 : Chapter 3
  91. 00:22:21.041 : Chapter 4
  92. 00:30:42.000 : Chapter 5
  93. 00:37:08.000 : Chapter 6
  94. 00:44:12.000 : Chapter 7
  95. 00:51:17.666 : Chapter 8
  96. 00:58:33.916 : Chapter 9
  97. 01:02:47.500 : Chapter 10
  98. 01:11:55.000 : Chapter 11
  99. 01:17:27.000 : Chapter 12
  100. 01:27:10.000 : Chapter 13
复制代码

洛奇第四集龙拳虎威 / 洛基4:天下无敌/洛奇4 4k Rocky.IV.1985.Ultimate.DC.2160p.WEB-DL.x265.10bit.HDR.DDP5.1-4k电影下载

洛奇4 4k Rocky.IV.1985.Ultimate.DC.2160p.WEB-DL.x265.10bit.HDR.DDP5.1【16.45 GB】
[Hao4k]洛奇4 4k Rocky.IV.1985.Ultimate.DC.2160p.WEB-DL.x265.10bit.HDR.DDP5.1-TEPES.torrent (21.22 KB, 售价: 3 个K币)
回复

使用道具 举报

全部回复8

hhhz 21-11-14 12:15 显示全部楼层

hhhz 2

21-11-14 12:15

经典老片!
回复 支持 反对

使用道具 举报

iki 21-11-14 14:56 显示全部楼层

iki 3

21-11-14 14:56

经典值得一看
回复 支持 反对

使用道具 举报

农夫舅舅 4

21-11-14 22:33

龙哥的电影一定要看看的哈哈
回复 支持 反对

使用道具 举报

cqcyganzj 21-11-15 12:19 显示全部楼层

cqcyganzj 5

21-11-15 12:19


经典老片!满满的回忆!
回复 支持 反对

使用道具 举报

xiaoshuizhu 6

21-11-20 13:19


经典值得一看,谢谢分享
回复 支持 反对

使用道具 举报

tnt807 21-11-20 17:05 显示全部楼层

tnt807 7

21-11-20 17:05

不如第一部,但是依然精彩,反应冷战时期美苏争霸的片子。苏联拳手很cool,cool毙啦
回复 支持 反对

使用道具 举报

老鼠响叮当燚燚 8

21-11-21 16:29

经典片子,谢谢楼主发片分享
回复 支持 反对

使用道具 举报

seagate00770 9

21-11-22 19:10

洛奇系列非常好看。
回复 支持 反对

使用道具 举报

   发表回复

您需要登录后才可以回帖 登录 | 立即注册

返回列表 本版积分规则

  • 发布新帖

  • 客服/帮助

  • 手机APP

  • 返回顶部