微博 微信 APP

Hao4K影音

电视剧频道
电视剧封面:
电视剧名: 雪宝大舞台 第一季4k
年  代: 2021  
国  家: 美国
类  别: 喜剧 奇幻 动画 歌舞 短片 
语  言: 英语
字  幕: 中文简体
上映日期: 2021-11-12
文件格式: mkv    
视频效果: 4K(3840x2160)    
资源大小: 1.99 GB
片  长: -
导  演: 海鲁姆·奥斯蒙德
剧情简介: 短片集中,雪宝将要模仿五部迪士尼经典动漫作品,上演歌舞秀,其中包括:《狮子王》、《小美人鱼》、《阿拉丁》、《魔发奇缘》、《海洋奇缘》。
雪宝说故事 / Olaf Présente/雪宝大舞台 第一季4k.Olaf.Presents.S01.2160p.DSNP.WEB-DL.x265.10bit.HDR.DDP5.1.Atmos美剧信息
  1. Video
  2. ID : 1
  3. Format : HEVC
  4. Format/Info : High Efficiency Video Coding
  5. Format profile : Main 10@L5@High
  6. HDR format : SMPTE ST 2086, HDR10 compatible
  7. Codec ID : V_MPEGH/ISO/HEVC
  8. Duration : 9 min 14 s
  9. Bit rate : 15.4 Mb/s
  10. Width : 3 840 pixels
  11. Height : 2 160 pixels
  12. Display aspect ratio : 16:9
  13. Frame rate mode : Constant
  14. Frame rate : 24.000 FPS
  15. Color space : YUV
  16. Chroma subsampling : 4:2:0
  17. Bit depth : 10 bits
  18. Bits/(Pixel*Frame) : 0.078
  19. Stream size : 1 020 MiB (95%)
  20. Language : English
  21. Default : Yes
  22. Forced : No
  23. Color range : Limited
  24. Color primaries : BT.2020
  25. Transfer characteristics : PQ
  26. Matrix coefficients : BT.2020 non-constant
  27. Mastering display color primaries : Display P3
  28. Mastering display luminance : min: 0.0000 cd/m2, max: 1000 cd/m2

  29. Audio
  30. ID : 2
  31. Format : E-AC-3 JOC
  32. Format/Info : Enhanced AC-3 with Joint Object Coding
  33. Commercial name : Dolby Digital Plus with Dolby Atmos
  34. Codec ID : A_EAC3
  35. Duration : 9 min 14 s
  36. Bit rate mode : Constant
  37. Bit rate : 768 kb/s
  38. Channel(s) : 6 channels
  39. Channel layout : L R C LFE Ls Rs
  40. Sampling rate : 48.0 kHz
  41. Frame rate : 31.250 FPS (1536 SPF)
  42. Compression mode : Lossy
  43. Stream size : 50.7 MiB (5%)
  44. Language : English
  45. Service kind : Complete Main
  46. Default : Yes
  47. Forced : No
  48. Complexity index : 16
  49. Number of dynamic objects : 15
  50. Bed channel count : 1 channel
  51. Bed channel configuration : LFE

  52. Text #1
  53. ID : 3
  54. Format : UTF-8
  55. Codec ID : S_TEXT/UTF8
  56. Codec ID/Info : UTF-8 Plain Text
  57. Duration : 9 min 9 s
  58. Bit rate : 94 b/s
  59. Count of elements : 197
  60. Stream size : 6.33 KiB (0%)
  61. Title : English (SDH)
  62. Language : English
  63. Default : No
  64. Forced : No

  65. Text #2
  66. ID : 4
  67. Format : UTF-8
  68. Codec ID : S_TEXT/UTF8
  69. Codec ID/Info : UTF-8 Plain Text
  70. Duration : 9 min 5 s
  71. Bit rate : 81 b/s
  72. Count of elements : 144
  73. Stream size : 5.44 KiB (0%)
  74. Title : Dansk
  75. Language : Danish
  76. Default : No
  77. Forced : No

  78. Text #3
  79. ID : 5
  80. Format : UTF-8
  81. Codec ID : S_TEXT/UTF8
  82. Codec ID/Info : UTF-8 Plain Text
  83. Duration : 9 min 5 s
  84. Bit rate : 83 b/s
  85. Count of elements : 180
  86. Stream size : 5.55 KiB (0%)
  87. Title : Deutsch
  88. Language : German
  89. Default : No
  90. Forced : No

  91. Text #4
  92. ID : 6
  93. Format : UTF-8
  94. Codec ID : S_TEXT/UTF8
  95. Codec ID/Info : UTF-8 Plain Text
  96. Duration : 9 min 5 s
  97. Bit rate : 83 b/s
  98. Count of elements : 180
  99. Stream size : 5.55 KiB (0%)
  100. Title : Español
  101. Language : Spanish
  102. Default : No
  103. Forced : No

  104. Text #5
  105. ID : 7
  106. Format : UTF-8
  107. Codec ID : S_TEXT/UTF8
  108. Codec ID/Info : UTF-8 Plain Text
  109. Duration : 9 min 11 s
  110. Bit rate : 85 b/s
  111. Count of elements : 181
  112. Stream size : 5.73 KiB (0%)
  113. Title : Español (Latinoamericano)
  114. Language : Spanish
  115. Default : No
  116. Forced : No

  117. Text #6
  118. ID : 8
  119. Format : UTF-8
  120. Codec ID : S_TEXT/UTF8
  121. Codec ID/Info : UTF-8 Plain Text
  122. Duration : 9 min 5 s
  123. Bit rate : 83 b/s
  124. Count of elements : 180
  125. Stream size : 5.53 KiB (0%)
  126. Title : Suomi
  127. Language : Finnish
  128. Default : No
  129. Forced : No

  130. Text #7
  131. ID : 9
  132. Format : UTF-8
  133. Codec ID : S_TEXT/UTF8
  134. Codec ID/Info : UTF-8 Plain Text
  135. Duration : 9 min 5 s
  136. Bit rate : 88 b/s
  137. Count of elements : 174
  138. Stream size : 5.86 KiB (0%)
  139. Title : Français
  140. Language : French
  141. Default : No
  142. Forced : No

  143. Text #8
  144. ID : 10
  145. Format : UTF-8
  146. Codec ID : S_TEXT/UTF8
  147. Codec ID/Info : UTF-8 Plain Text
  148. Duration : 9 min 5 s
  149. Bit rate : 84 b/s
  150. Count of elements : 180
  151. Stream size : 5.64 KiB (0%)
  152. Title : Italiano
  153. Language : Italian
  154. Default : No
  155. Forced : No

  156. Text #9
  157. ID : 11
  158. Format : UTF-8
  159. Codec ID : S_TEXT/UTF8
  160. Codec ID/Info : UTF-8 Plain Text
  161. Duration : 9 min 4 s
  162. Bit rate : 75 b/s
  163. Count of elements : 189
  164. Stream size : 4.99 KiB (0%)
  165. Title : Japanese
  166. Language : Japanese
  167. Default : No
  168. Forced : No

  169. Text #10
  170. ID : 12
  171. Format : UTF-8
  172. Codec ID : S_TEXT/UTF8
  173. Codec ID/Info : UTF-8 Plain Text
  174. Duration : 9 min 11 s
  175. Bit rate : 90 b/s
  176. Count of elements : 181
  177. Stream size : 6.11 KiB (0%)
  178. Title : Korean
  179. Language : Korean
  180. Default : No
  181. Forced : No

  182. Text #11
  183. ID : 13
  184. Format : UTF-8
  185. Codec ID : S_TEXT/UTF8
  186. Codec ID/Info : UTF-8 Plain Text
  187. Duration : 9 min 5 s
  188. Bit rate : 74 b/s
  189. Count of elements : 161
  190. Stream size : 4.95 KiB (0%)
  191. Title : Nederlands
  192. Language : Dutch
  193. Default : No
  194. Forced : No

  195. Text #12
  196. ID : 14
  197. Format : UTF-8
  198. Codec ID : S_TEXT/UTF8
  199. Codec ID/Info : UTF-8 Plain Text
  200. Duration : 9 min 5 s
  201. Bit rate : 82 b/s
  202. Count of elements : 180
  203. Stream size : 5.51 KiB (0%)
  204. Title : Norsk
  205. Language : Norwegian
  206. Default : No
  207. Forced : No

  208. Text #13
  209. ID : 15
  210. Format : UTF-8
  211. Codec ID : S_TEXT/UTF8
  212. Codec ID/Info : UTF-8 Plain Text
  213. Duration : 9 min 5 s
  214. Bit rate : 82 b/s
  215. Count of elements : 181
  216. Stream size : 5.48 KiB (0%)
  217. Title : Polski
  218. Language : Polish
  219. Default : No
  220. Forced : No

  221. Text #14
  222. ID : 16
  223. Format : UTF-8
  224. Codec ID : S_TEXT/UTF8
  225. Codec ID/Info : UTF-8 Plain Text
  226. Duration : 9 min 5 s
  227. Bit rate : 85 b/s
  228. Count of elements : 180
  229. Stream size : 5.71 KiB (0%)
  230. Title : Português (Brasil)
  231. Language : Portuguese
  232. Default : No
  233. Forced : No

  234. Text #15
  235. ID : 17
  236. Format : UTF-8
  237. Codec ID : S_TEXT/UTF8
  238. Codec ID/Info : UTF-8 Plain Text
  239. Duration : 9 min 5 s
  240. Bit rate : 82 b/s
  241. Count of elements : 180
  242. Stream size : 5.51 KiB (0%)
  243. Title : Português
  244. Language : Portuguese
  245. Default : No
  246. Forced : No

  247. Text #16
  248. ID : 18
  249. Format : UTF-8
  250. Codec ID : S_TEXT/UTF8
  251. Codec ID/Info : UTF-8 Plain Text
  252. Duration : 9 min 5 s
  253. Bit rate : 79 b/s
  254. Count of elements : 179
  255. Stream size : 5.30 KiB (0%)
  256. Title : Svenska
  257. Language : Swedish
  258. Default : No
  259. Forced : No

  260. Text #17
  261. ID : 19
  262. Format : UTF-8
  263. Codec ID : S_TEXT/UTF8
  264. Codec ID/Info : UTF-8 Plain Text
  265. Duration : 9 min 11 s
  266. Bit rate : 80 b/s
  267. Count of elements : 182
  268. Stream size : 5.43 KiB (0%)
  269. Title : Chinese (Simplified)
  270. Language : Chinese
  271. Default : No
  272. Forced : No

  273. Text #18
  274. ID : 20
  275. Format : UTF-8
  276. Codec ID : S_TEXT/UTF8
  277. Codec ID/Info : UTF-8 Plain Text
  278. Duration : 9 min 11 s
  279. Bit rate : 74 b/s
  280. Count of elements : 182
  281. Stream size : 5.01 KiB (0%)
  282. Title : Chinese (Hong Kong)
  283. Language : Chinese
  284. Default : No
  285. Forced : No

  286. Text #19
  287. ID : 21
  288. Format : UTF-8
  289. Codec ID : S_TEXT/UTF8
  290. Codec ID/Info : UTF-8 Plain Text
  291. Duration : 9 min 11 s
  292. Bit rate : 76 b/s
  293. Count of elements : 181
  294. Stream size : 5.17 KiB (0%)
  295. Title : Chinese (Traditional)
  296. Language : Chinese
  297. Default : No
  298. Forced : No
复制代码

雪宝说故事 / Olaf Présente/雪宝大舞台 第一季4k.Olaf.Presents.S01.2160p.DSNP.WEB-DL.x265.10bit.HDR.DDP5.1.Atmos美剧下载

雪宝大舞台 第一季4k.Olaf.Presents.S01.2160p.DSNP.WEB-DL.x265.10bit.HDR.DDP5.1.Atmos简繁中字【1.99 GB】
[Hao4k]雪宝大舞台 第一季4k Olaf.Presents.S01.2160p.DSNP.WEB-DL.x265.10bit.HDR.DDP5.1.Atmos-KOGi.torrent (20.95 KB)
回复

使用道具 举报

全部回复1

aabbccddeeff 2

21-12-2 09:42

小朋友肯定喜欢!谢谢分享!
回复 支持 反对

使用道具 举报

   发表回复

您需要登录后才可以回帖 登录 | 立即注册

返回列表 本版积分规则

  • 发布新帖

  • 客服/帮助

  • 手机APP

  • 返回顶部