微博 微信 APP

Hao4K影音

电视剧频道
电视剧封面:
电视剧名: 交错人生4k
年  代: 2021  
国  家: 美国
类  别: 剧情 喜剧 奇幻 歌舞 
语  言: 英语
字  幕: 中文简体
上映日期: 2021-11-12
文件格式: mkv    
视频效果: 4K(3840x2160)    
资源大小: 50.96 GB
片  长: -
导  演: Javier Castro Albano / Jorge Edelstein / Laura Farhi
剧情简介: Allegra dreams of being part of the Eleven O\'Clock musical theater company and becoming the star of "Freaky Friday", a play that consecrated her grandmother years ago. Grandmother Cocó is a living legend in the world of musical comedy and has a complicated relationship with her daughter Caterina, Allegra\'s mother. Allegra\'s life is completely altered when she finds a mysterious bracelet in her home that sends her back to 1994, the year Caterina was her age and took her first steps in Eleven O\'Clock while living in the shadow of Cocó, a star. at the peak of his career. By learning about her mother and grandmother\'s past, Allegra will not only help heal the wounds and bring the family together, but she will also discover that while the past cannot be changed, there is a lot to learn from it.
交错人生4k.Intertwined.S01.DUBBED.2160p.DSNP.WEB-DL.x265.10bit.HDR.DDP5.1-4k美剧信息
  1. Video
  2. ID : 1
  3. Format : HEVC
  4. Format/Info : High Efficiency Video Coding
  5. Format profile : Main 10@L5@High
  6. HDR format : SMPTE ST 2086, HDR10 compatible
  7. Codec ID : V_MPEGH/ISO/HEVC
  8. Duration : 51 min 27 s
  9. Bit rate : 16.5 Mb/s
  10. Width : 3 840 pixels
  11. Height : 2 160 pixels
  12. Display aspect ratio : 16:9
  13. Frame rate mode : Constant
  14. Frame rate : 23.976 (24000/1001) FPS
  15. Color space : YUV
  16. Chroma subsampling : 4:2:0
  17. Bit depth : 10 bits
  18. Bits/(Pixel*Frame) : 0.083
  19. Stream size : 5.93 GiB (98%)
  20. Language : English
  21. Default : Yes
  22. Forced : No
  23. Color range : Limited
  24. Color primaries : BT.2020
  25. Transfer characteristics : PQ
  26. Matrix coefficients : BT.2020 non-constant
  27. Mastering display color primaries : BT.2020
  28. Mastering display luminance : min: 0.0001 cd/m2, max: 1000 cd/m2

  29. Audio
  30. ID : 2
  31. Format : E-AC-3
  32. Format/Info : Enhanced AC-3
  33. Commercial name : Dolby Digital Plus
  34. Codec ID : A_EAC3
  35. Duration : 51 min 27 s
  36. Bit rate mode : Constant
  37. Bit rate : 256 kb/s
  38. Channel(s) : 6 channels
  39. Channel layout : L R C LFE Ls Rs
  40. Sampling rate : 48.0 kHz
  41. Frame rate : 31.250 FPS (1536 SPF)
  42. Compression mode : Lossy
  43. Stream size : 94.2 MiB (2%)
  44. Language : English
  45. Service kind : Complete Main
  46. Default : Yes
  47. Forced : No

  48. Text #1
  49. ID : 3
  50. Format : UTF-8
  51. Codec ID : S_TEXT/UTF8
  52. Codec ID/Info : UTF-8 Plain Text
  53. Duration : 47 min 45 s
  54. Bit rate : 69 b/s
  55. Count of elements : 658
  56. Stream size : 24.2 KiB (0%)
  57. Title : English (SDH)
  58. Language : English
  59. Default : No
  60. Forced : No

  61. Text #2
  62. ID : 4
  63. Format : UTF-8
  64. Codec ID : S_TEXT/UTF8
  65. Codec ID/Info : UTF-8 Plain Text
  66. Duration : 51 min 22 s
  67. Bit rate : 47 b/s
  68. Count of elements : 529
  69. Stream size : 17.7 KiB (0%)
  70. Title : Dansk
  71. Language : Danish
  72. Default : No
  73. Forced : No

  74. Text #3
  75. ID : 5
  76. Format : UTF-8
  77. Codec ID : S_TEXT/UTF8
  78. Codec ID/Info : UTF-8 Plain Text
  79. Duration : 51 min 22 s
  80. Bit rate : 50 b/s
  81. Count of elements : 501
  82. Stream size : 19.0 KiB (0%)
  83. Title : Deutsch
  84. Language : German
  85. Default : No
  86. Forced : No

  87. Text #4
  88. ID : 6
  89. Format : UTF-8
  90. Codec ID : S_TEXT/UTF8
  91. Codec ID/Info : UTF-8 Plain Text
  92. Duration : 47 min 45 s
  93. Bit rate : 69 b/s
  94. Count of elements : 602
  95. Stream size : 24.5 KiB (0%)
  96. Title : Español (Latinoamericano) [CC]
  97. Language : Spanish
  98. Default : No
  99. Forced : No

  100. Text #5
  101. ID : 7
  102. Format : UTF-8
  103. Codec ID : S_TEXT/UTF8
  104. Codec ID/Info : UTF-8 Plain Text
  105. Duration : 51 min 22 s
  106. Bit rate : 48 b/s
  107. Count of elements : 454
  108. Stream size : 18.1 KiB (0%)
  109. Title : Suomi
  110. Language : Finnish
  111. Default : No
  112. Forced : No

  113. Text #6
  114. ID : 8
  115. Format : UTF-8
  116. Codec ID : S_TEXT/UTF8
  117. Codec ID/Info : UTF-8 Plain Text
  118. Duration : 51 min 22 s
  119. Bit rate : 55 b/s
  120. Count of elements : 508
  121. Stream size : 20.7 KiB (0%)
  122. Title : Français
  123. Language : French
  124. Default : No
  125. Forced : No

  126. Text #7
  127. ID : 9
  128. Format : UTF-8
  129. Codec ID : S_TEXT/UTF8
  130. Codec ID/Info : UTF-8 Plain Text
  131. Duration : 51 min 22 s
  132. Bit rate : 44 b/s
  133. Count of elements : 491
  134. Stream size : 16.8 KiB (0%)
  135. Title : Italiano
  136. Language : Italian
  137. Default : No
  138. Forced : No

  139. Text #8
  140. ID : 10
  141. Format : UTF-8
  142. Codec ID : S_TEXT/UTF8
  143. Codec ID/Info : UTF-8 Plain Text
  144. Duration : 51 min 22 s
  145. Bit rate : 44 b/s
  146. Count of elements : 533
  147. Stream size : 16.6 KiB (0%)
  148. Title : Japanese
  149. Language : Japanese
  150. Default : No
  151. Forced : No

  152. Text #9
  153. ID : 11
  154. Format : UTF-8
  155. Codec ID : S_TEXT/UTF8
  156. Codec ID/Info : UTF-8 Plain Text
  157. Duration : 51 min 22 s
  158. Bit rate : 60 b/s
  159. Count of elements : 534
  160. Stream size : 22.6 KiB (0%)
  161. Title : Korean
  162. Language : Korean
  163. Default : No
  164. Forced : No

  165. Text #10
  166. ID : 12
  167. Format : UTF-8
  168. Codec ID : S_TEXT/UTF8
  169. Codec ID/Info : UTF-8 Plain Text
  170. Duration : 51 min 22 s
  171. Bit rate : 43 b/s
  172. Count of elements : 474
  173. Stream size : 16.4 KiB (0%)
  174. Title : Nederlands
  175. Language : Dutch
  176. Default : No
  177. Forced : No

  178. Text #11
  179. ID : 13
  180. Format : UTF-8
  181. Codec ID : S_TEXT/UTF8
  182. Codec ID/Info : UTF-8 Plain Text
  183. Duration : 51 min 22 s
  184. Bit rate : 51 b/s
  185. Count of elements : 510
  186. Stream size : 19.4 KiB (0%)
  187. Title : Norsk
  188. Language : Norwegian
  189. Default : No
  190. Forced : No

  191. Text #12
  192. ID : 14
  193. Format : UTF-8
  194. Codec ID : S_TEXT/UTF8
  195. Codec ID/Info : UTF-8 Plain Text
  196. Duration : 51 min 22 s
  197. Bit rate : 46 b/s
  198. Count of elements : 516
  199. Stream size : 17.4 KiB (0%)
  200. Title : Polski
  201. Language : Polish
  202. Default : No
  203. Forced : No

  204. Text #13
  205. ID : 15
  206. Format : UTF-8
  207. Codec ID : S_TEXT/UTF8
  208. Codec ID/Info : UTF-8 Plain Text
  209. Duration : 51 min 22 s
  210. Bit rate : 44 b/s
  211. Count of elements : 499
  212. Stream size : 16.8 KiB (0%)
  213. Title : Português (Brasil)
  214. Language : Portuguese
  215. Default : No
  216. Forced : No

  217. Text #14
  218. ID : 16
  219. Format : UTF-8
  220. Codec ID : S_TEXT/UTF8
  221. Codec ID/Info : UTF-8 Plain Text
  222. Duration : 51 min 22 s
  223. Bit rate : 52 b/s
  224. Count of elements : 518
  225. Stream size : 19.6 KiB (0%)
  226. Title : Português
  227. Language : Portuguese
  228. Default : No
  229. Forced : No

  230. Text #15
  231. ID : 17
  232. Format : UTF-8
  233. Codec ID : S_TEXT/UTF8
  234. Codec ID/Info : UTF-8 Plain Text
  235. Duration : 51 min 22 s
  236. Bit rate : 55 b/s
  237. Count of elements : 492
  238. Stream size : 20.9 KiB (0%)
  239. Title : Svenska
  240. Language : Swedish
  241. Default : No
  242. Forced : No

  243. Text #16
  244. ID : 18
  245. Format : UTF-8
  246. Codec ID : S_TEXT/UTF8
  247. Codec ID/Info : UTF-8 Plain Text
  248. Duration : 51 min 22 s
  249. Bit rate : 49 b/s
  250. Count of elements : 535
  251. Stream size : 18.8 KiB (0%)
  252. Title : Chinese (Simplified)
  253. Language : Chinese
  254. Default : No
  255. Forced : No

  256. Text #17
  257. ID : 19
  258. Format : UTF-8
  259. Codec ID : S_TEXT/UTF8
  260. Codec ID/Info : UTF-8 Plain Text
  261. Duration : 51 min 22 s
  262. Bit rate : 47 b/s
  263. Count of elements : 535
  264. Stream size : 18.0 KiB (0%)
  265. Title : Chinese (Traditional)
  266. Language : Chinese
  267. Default : No
  268. Forced : No
复制代码

交错人生4k.Intertwined.S01.DUBBED.2160p.DSNP.WEB-DL.x265.10bit.HDR.DDP5.1-4k美剧下载

交错人生4k.Intertwined.S01.DUBBED.2160p.DSNP.WEB-DL.x265.10bit.HDR.DDP5.1简繁中字【50.96 GB】
[Hao4k]交错人生4k Intertwined.S01.DUBBED.2160p.DSNP.WEB-DL.x265.10bit.HDR.DDP5.1-KOGi.torrent (65.03 KB)
回复

使用道具 举报

   发表回复

您需要登录后才可以回帖 登录 | 立即注册

返回列表 本版积分规则

  • 发布新帖

  • 客服/帮助

  • 手机APP

  • 返回顶部