微博 微信 APP

Hao4K影音

电视剧频道
电视剧封面:
电视剧名: 星际迷航:发现号 第四季4k
年  代: 2021  
国  家: 美国
类  别: 动作 科幻 冒险 剧情 
语  言: 英语
字  幕: 英文原版
上映日期: 2021-11-18
文件格式: mkv    
视频效果: 4K(3840x2160)    
资源大小: 5.32 GB
片  长: -
导  演: 奥拉顿德·奥逊山米
剧情简介: -
星空奇遇记:发现号(港) / 星际争霸战:发现号(台) / 星际迷航:探索号/星际迷航:发现号 第四季4k.Star.Trek.Discovery.S04E01.HDR.2160p.WEB.H265-4k美剧信息
  1. Video
  2. ID : 1
  3. Format : HEVC
  4. Format/Info : High Efficiency Video Coding
  5. Format profile : Main 10@L5@High
  6. HDR format : SMPTE ST 2094 App 4, Version 1, HDR10+ Profile B compatible
  7. Codec ID : V_MPEGH/ISO/HEVC
  8. Duration : 52 min 31 s
  9. Bit rate : 14.0 Mb/s
  10. Width : 3 840 pixels
  11. Height : 2 160 pixels
  12. Display aspect ratio : 16:9
  13. Frame rate mode : Constant
  14. Frame rate : 23.976 (24000/1001) FPS
  15. Color space : YUV
  16. Chroma subsampling : 4:2:0 (Type 2)
  17. Bit depth : 10 bits
  18. Bits/(Pixel*Frame) : 0.071
  19. Stream size : 5.15 GiB (97%)
  20. Default : Yes
  21. Forced : No
  22. Color range : Full
  23. Color primaries : BT.2020
  24. Transfer characteristics : PQ
  25. Matrix coefficients : BT.2020 non-constant
  26. Mastering display color primaries : Display P3
  27. Mastering display luminance : min: 0.0001 cd/m2, max: 1000 cd/m2

  28. Audio
  29. ID : 2
  30. Format : E-AC-3
  31. Format/Info : Enhanced AC-3
  32. Commercial name : Dolby Digital Plus
  33. Codec ID : A_EAC3
  34. Duration : 52 min 31 s
  35. Bit rate mode : Constant
  36. Bit rate : 192 kb/s
  37. Channel(s) : 6 channels
  38. Channel layout : L R C LFE Ls Rs
  39. Sampling rate : 48.0 kHz
  40. Frame rate : 31.250 FPS (1536 SPF)
  41. Compression mode : Lossy
  42. Stream size : 72.1 MiB (1%)
  43. Language : English
  44. Service kind : Complete Main
  45. Default : Yes
  46. Forced : No

  47. Text
  48. ID : 3
  49. Format : UTF-8
  50. Codec ID : S_TEXT/UTF8
  51. Codec ID/Info : UTF-8 Plain Text
  52. Title : English
  53. Language : English
  54. Default : No
  55. Forced : No
复制代码

星空奇遇记:发现号(港) / 星际争霸战:发现号(台) / 星际迷航:探索号/星际迷航:发现号 第四季4k.Star.Trek.Discovery.S04E01.HDR.2160p.WEB.H265-4k美剧下载

星际迷航:发现号 第四季4k.Star.Trek.Discovery.S04E01.HDR.2160p.WEB.H265【5.32 GB】
[Hao4K]星际迷航:发现号 第四季4K Star.Trek.Discovery.S04E01.HDR.2160p.WEB.H265-GLHF.torrent (14.06 KB)
回复

使用道具 举报

全部回复4

daishuxuan 2

21-11-19 20:15

wocao,高人啊,这算是第一时间了。
回复 支持 3 反对 0

使用道具 举报

止水竟 21-11-25 17:32 显示全部楼层

止水竟 3

21-11-25 17:32

求字幕
回复 支持 1 反对 0

使用道具 举报

l80579908 4

21-12-5 10:04

第二集没有非杜比视界的么
回复 支持 反对

使用道具 举报

daishuxuan 5

21-12-6 19:19

l80579908 发表于 21-12-5 10:04
第二集没有非杜比视界的么

我也发现了,所以打算养起来完结了再看,看到时候是不是 更新。
回复 支持 反对

使用道具 举报

   发表回复

您需要登录后才可以回帖 登录 | 立即注册

返回列表 本版积分规则

  • 发布新帖

  • 客服/帮助

  • 手机APP

  • 返回顶部