微博 微信 手机APP

Hao4K影音

电视剧频道
电视剧封面:
电视剧名: 邻家心理医生4k
年  代: 2021  
国  家: 美国
类  别: 喜剧 
语  言: 英语
字  幕: 英文原版
上映日期: 2021-11-12
文件格式: mkv    
视频效果: 4K(3840x2160)    
资源大小: 6.36 GB
片  长: -
导  演: 迈克尔·肖沃特
剧情简介: 保罗·路德、威尔·法瑞尔将主演喜剧剧集《邻家心理医生》(The Shrink Next Door,暂译)。该剧故事源自真实事件,改编自同名播客,讲述心理医生艾克(路德饰)与他的长期客户马蒂(法瑞尔)之间奇特的关系。在治疗期间,艾克逐渐接管了马蒂的人生,搬进了马蒂家,还接管了他的家族产业。乔治娅·普里奇特(《副总统》)操刀剧本并担任执行制片人,迈克尔·肖沃特([大病])执导。
隔壁的心理医生/邻家心理医生4k.The.Shrink.Next.Door.S01E01.2160p.ATVP.WEB-DL.DDP5.1.Atmos.DV.MP4.x265-4k美剧信息
  1. Video
  2. ID : 1
  3. Format : HEVC
  4. Format/Info : High Efficiency Video Coding
  5. Format profile : Main 10@L5@High
  6. HDR format : Dolby Vision, Version 1.0, dvhe.05.06, BL+RPU
  7. Codec ID : dvhe
  8. Codec ID/Info : High Efficiency Video Coding with Dolby Vision
  9. Duration : 35 min 40 s
  10. Bit rate : 24.8 Mb/s
  11. Width : 3 840 pixels
  12. Height : 2 080 pixels
  13. Original height : 2 076 pixels
  14. Display aspect ratio : 1.85:1
  15. Original display aspect ratio : 1.85:1
  16. Frame rate mode : Constant
  17. Frame rate : 23.976 (24000/1001) FPS
  18. Color space : YUV
  19. Chroma subsampling : 4:2:0
  20. Bit depth : 10 bits
  21. Bits/(Pixel*Frame) : 0.129
  22. Stream size : 6.17 GiB (97%)
  23. Default : Yes
  24. Alternate group : 1
  25. Encoded date : UTC 2021-11-12 04:52:31
  26. Tagged date : UTC 2021-11-12 04:52:52
  27. Codec configuration box : hvcC+dvcC

  28. Audio
  29. ID : 2
  30. Format : E-AC-3 JOC
  31. Format/Info : Enhanced AC-3 with Joint Object Coding
  32. Commercial name : Dolby Digital Plus with Dolby Atmos
  33. Codec ID : ec-3
  34. Duration : 35 min 40 s
  35. Bit rate mode : Constant
  36. Bit rate : 768 kb/s
  37. Maximum bit rate : 811 kb/s
  38. Channel(s) : 6 channels
  39. Channel layout : L R C LFE Ls Rs
  40. Sampling rate : 48.0 kHz
  41. Frame rate : 31.250 FPS (1536 SPF)
  42. Compression mode : Lossy
  43. Stream size : 196 MiB (3%)
  44. Title : English
  45. Language : English
  46. Service kind : Complete Main
  47. Default : Yes
  48. Alternate group : 1
  49. Tagged date : UTC 2021-11-12 04:52:52
  50. Complexity index : Not present / 16
  51. Number of dynamic objects : 15
  52. Bed channel count : 1 channel
  53. Bed channel configuration : LFE

  54. Text #1
  55. ID : 3
  56. Format : Timed Text
  57. Codec ID : tx3g
  58. Duration : 32 min 55 s
  59. Bit rate mode : Variable
  60. Bit rate : 92 b/s
  61. Stream size : 22.2 KiB (0%)
  62. Title : English
  63. Language : English
  64. Forced : No
  65. Encoded date : UTC 2021-11-12 04:52:48
  66. Tagged date : UTC 2021-11-12 04:52:52

  67. Text #2
  68. ID : 4
  69. Format : Timed Text
  70. Codec ID : tx3g
  71. Duration : 35 min 33 s
  72. Bit rate mode : Variable
  73. Bit rate : 109 b/s
  74. Stream size : 28.3 KiB (0%)
  75. Title : Arabic
  76. Language : Arabic
  77. Forced : No
  78. Encoded date : UTC 2021-11-12 04:52:48
  79. Tagged date : UTC 2021-11-12 04:52:52

  80. Text #3
  81. ID : 5
  82. Format : Timed Text
  83. Codec ID : tx3g
  84. Duration : 35 min 33 s
  85. Bit rate mode : Variable
  86. Bit rate : 111 b/s
  87. Stream size : 29.0 KiB (0%)
  88. Title : Bulgarian
  89. Language : Bulgarian
  90. Forced : No
  91. Encoded date : UTC 2021-11-12 04:52:48
  92. Tagged date : UTC 2021-11-12 04:52:52

  93. Text #4
  94. ID : 6
  95. Format : Timed Text
  96. Codec ID : tx3g
  97. Duration : 35 min 33 s
  98. Bit rate mode : Variable
  99. Bit rate : 79 b/s
  100. Stream size : 20.7 KiB (0%)
  101. Title : Chinese-Cantonese
  102. Language : Chinese
  103. Forced : No
  104. Encoded date : UTC 2021-11-12 04:52:49
  105. Tagged date : UTC 2021-11-12 04:52:52

  106. Text #5
  107. ID : 7
  108. Format : Timed Text
  109. Codec ID : tx3g
  110. Duration : 35 min 33 s
  111. Bit rate mode : Variable
  112. Bit rate : 75 b/s
  113. Stream size : 19.5 KiB (0%)
  114. Title : Chinese-Simplified
  115. Language : Chinese
  116. Forced : No
  117. Encoded date : UTC 2021-11-12 04:52:49
  118. Tagged date : UTC 2021-11-12 04:52:52

  119. Text #6
  120. ID : 8
  121. Format : Timed Text
  122. Codec ID : tx3g
  123. Duration : 35 min 33 s
  124. Bit rate mode : Variable
  125. Bit rate : 78 b/s
  126. Stream size : 20.3 KiB (0%)
  127. Title : Chinese-Traditional
  128. Language : Chinese
  129. Forced : No
  130. Encoded date : UTC 2021-11-12 04:52:49
  131. Tagged date : UTC 2021-11-12 04:52:52
复制代码

隔壁的心理医生/邻家心理医生4k.The.Shrink.Next.Door.S01E01.2160p.ATVP.WEB-DL.DDP5.1.Atmos.DV.MP4.x265-4k美剧下载

邻家心理医生4k.The.Shrink.Next.Door.S01E01.2160p.ATVP.WEB-DL.DDP5.1.Atmos.DV.MP4.x265自带中文【4k 杜比视界 6.36 GB】
[Hao4k]邻家心理医生4k.The.Shrink.Next.Door.S01E01.2160p.ATVP.WEB-DL.DDP5.1.Atmos.DV.MP4.x265-DVSUX.torrent (16.59 KB)
回复

使用道具 举报

   发表回复

您需要登录后才可以回帖 登录 | 立即注册

返回列表 本版积分规则

  • 发布新帖

  • 客服/帮助

  • 手机APP

  • 返回顶部