微博 微信 APP

Hao4K影音

电影频道
电影封面:
片  名: 国王理查德4K
电影分类: 剧情 
国  家: 美国 
年  代: 2021年
分 辨 率: 4K(3840x2160)
电影格式: MKV|REMUX 
画质标准: HDR 
音质编码: Dolby Digital Plus Audio 
电影声道: 5.1声道 
帧数/FPS: 23.976 帧
电影语言: 英文原版 
资源大小: 18.84 GB
导  演: 雷纳尔多·马库斯·格林
豆瓣评分:
中文字幕: -
剧情简介: 威尔·史密斯主演的网球题材新片《国王理查德》定下导演:雷纳尔多·马库斯·格林(《怪物与人》《停下》),并定档2020年11月25日北美上映。
  该片剧本排2018年好莱坞“剧本黑名单”第二,讲述理查德·威廉姆斯的真实故事,这位精明务实、不屈不挠、没有任何网球背景的父亲培养出了两个网球天才,她们后来成了超级巨星——维纳斯·威廉姆斯和塞雷娜·威廉姆斯(大威小威)。
  理查德·威廉姆斯为女儿们的职业网球生涯起草了一份78页的计划,女孩们在康普顿破旧、杂草丛生的公共球场上学会了这项运动。据报道,在那之前,她们的父亲与一些不喜欢这项运动、不肯让位的年轻硬汉发生了争执。威廉姆斯姐妹后来成为了网球史上最伟大的女选手之二。
王者理查德 / 王者理查(台) / 王者世家(港)/国王理查德4K.King.Richard.2021.2160p.HMAX.WEB-DL.x265.10bit.HDR.DDP5.1.Atmos-4k电影信息
  1. Video
  2. ID : 1
  3. Format : HEVC
  4. Format/Info : High Efficiency Video Coding
  5. Format profile : Main 10@L5@Main
  6. HDR format : SMPTE ST 2086, HDR10 compatible
  7. Codec ID : V_MPEGH/ISO/HEVC
  8. Duration : 2 h 24 min
  9. Bit rate : 17.9 Mb/s
  10. Width : 3 840 pixels
  11. Height : 2 160 pixels
  12. Display aspect ratio : 16:9
  13. Frame rate mode : Constant
  14. Frame rate : 23.976 (24000/1001) FPS
  15. Color space : YUV
  16. Chroma subsampling : 4:2:0
  17. Bit depth : 10 bits
  18. Bits/(Pixel*Frame) : 0.090
  19. Stream size : 18.1 GiB (96%)
  20. Writing library : x265 3.4hy:[Linux][GCC 7.5.0][64 bit] 10bit
  21. Encoding settings : cpuid=1111039 / frame-threads=1 / wpp / no-pmode / no-pme / no-psnr / no-ssim / log-level=2 / input-csp=1 / input-res=3840x2160 / interlace=0 / total-frames=0 / level-idc=0 / high-tier=1 / uhd-bd=0 / ref=4 / no-allow-non-conformance / repeat-headers / annexb / no-aud / no-hrd / info / hash=0 / no-temporal-layers / no-open-gop / min-keyint=96 / keyint=96 / gop-lookahead=0 / bframes=3 / b-adapt=2 / b-pyramid / bframe-bias=0 / rc-lookahead=25 / lookahead-slices=4 / scenecut=40 / hist-scenecut=0 / radl=0 / no-splice / no-intra-refresh / ctu=64 / min-cu-size=8 / rect / no-amp / max-tu-size=32 / tu-inter-depth=1 / tu-intra-depth=1 / limit-tu=0 / rdoq-level=2 / dynamic-rd=0.00 / no-ssim-rd / signhide / no-tskip / nr-intra=0 / nr-inter=0 / no-constrained-intra / strong-intra-smoothing / max-merge=3 / limit-refs=3 / limit-modes / me=3 / subme=3 / merange=57 / temporal-mvp / no-frame-dup / no-hme / weightp / no-weightb / no-analyze-src-pics / deblock=0:0 / sao / no-sao-non-deblock / rd=4 / selective-sao=4 / no-early-skip / rskip / no-fast-intra / no-tskip-fast / no-cu-lossless / no-b-intra / no-splitrd-skip / rdpenalty=0 / psy-rd=2.00 / psy-rdoq=1.00 / no-rd-refine / no-lossless / cbqpoffs=0 / crqpoffs=0 / rc=abr / bitrate=18000 / qcomp=0.60 / qpstep=4 / stats-write=0 / stats-read=2 / cplxblur=20.0 / qblur=0.5 / vbv-maxrate=24500 / vbv-bufsize=24500 / vbv-init=0.6 / vbv-end=0.6 / vbv-end-fr-adj=0.0 / ipratio=1.40 / pbratio=1.30 / aq-mode=2 / aq-strength=1.00 / cutree / zone-count=0 / no-strict-cbr / qg-size=32 / no-rc-grain / qpmax=69 / qpmin=0 / no-const-vbv / sar=0 / overscan=0 / videoformat=5 / range=0 / colorprim=9 / transfer=16 / colormatrix=9 / chromaloc=0 / display-window=0 / master-display=G(13250,34500)B(7500,3000)R(34000,16000)WP(15635,16450)L(10000000,1) / cll=279,38 / min-luma=0 / max-luma=1023 / log2-max-poc-lsb=8 / vui-timing-info / vui-hrd-info / no-concatenation / slices=1 / no-opt-qp-pps / no-opt-ref-list-length-pps / no-multi-pass-opt-rps / scenecut-bias=0.05 / hist-threshold=0.01 / no-opt-cu-delta-qp / no-aq-motion / hdr10 / no-hdr10-opt / no-dhdr10-opt / no-idr-recovery-sei / analysis-reuse-level=0 / analysis-save-reuse-level=0 / analysis-load-reuse-level=0 / scale-factor=0 / refine-intra=0 / refine-inter=0 / refine-mv=1 / refine-ctu-distortion=0 / no-limit-sao / ctu-info=0 / no-lowpass-dct / refine-analysis-type=0 / copy-pic=1 / max-ausize-factor=1.0 / no-dynamic-refine / no-single-sei / no-hevc-aq / no-svt / no-field / qp-adaptation-range=1.00 / no-scenecut-aware-qpconformance-window-offsets / right=0 / bottom=0 / decoder-max-rate=0
  22. Default : Yes
  23. Forced : No
  24. Color range : Limited
  25. Color primaries : BT.2020
  26. Transfer characteristics : PQ
  27. Matrix coefficients : BT.2020 non-constant
  28. Mastering display color primaries : Display P3
  29. Mastering display luminance : min: 0.0001 cd/m2, max: 1000 cd/m2
  30. Maximum Content Light Level : 279 cd/m2
  31. Maximum Frame-Average Light Level : 38 cd/m2

  32. Audio
  33. ID : 2
  34. Format : E-AC-3 JOC
  35. Format/Info : Enhanced AC-3 with Joint Object Coding
  36. Commercial name : Dolby Digital Plus with Dolby Atmos
  37. Codec ID : A_EAC3
  38. Duration : 2 h 24 min
  39. Bit rate mode : Constant
  40. Bit rate : 768 kb/s
  41. Channel(s) : 6 channels
  42. Channel layout : L R C LFE Ls Rs
  43. Sampling rate : 48.0 kHz
  44. Frame rate : 31.250 FPS (1536 SPF)
  45. Compression mode : Lossy
  46. Stream size : 795 MiB (4%)
  47. Title : English
  48. Language : English
  49. Service kind : Complete Main
  50. Default : No
  51. Forced : No
  52. Complexity index : 16
  53. Number of dynamic objects : 15
  54. Bed channel count : 1 channel
  55. Bed channel configuration : LFE

  56. Text #1
  57. ID : 3
  58. Format : UTF-8
  59. Codec ID : S_TEXT/UTF8
  60. Codec ID/Info : UTF-8 Plain Text
  61. Duration : 2 h 18 min
  62. Bit rate : 83 b/s
  63. Count of elements : 2714
  64. Stream size : 85.1 KiB (0%)
  65. Title : English
  66. Language : English
  67. Default : No
  68. Forced : No

  69. Text #2
  70. ID : 4
  71. Format : UTF-8
  72. Codec ID : S_TEXT/UTF8
  73. Codec ID/Info : UTF-8 Plain Text
  74. Duration : 2 h 18 min
  75. Bit rate : 96 b/s
  76. Count of elements : 2975
  77. Stream size : 97.7 KiB (0%)
  78. Title : English [SDH]
  79. Language : English
  80. Default : No
  81. Forced : No

  82. Text #3
  83. ID : 5
  84. Format : UTF-8
  85. Codec ID : S_TEXT/UTF8
  86. Codec ID/Info : UTF-8 Plain Text
  87. Duration : 2 h 17 min
  88. Bit rate : 3 b/s
  89. Count of elements : 86
  90. Stream size : 3.73 KiB (0%)
  91. Title : Spanish
  92. Language : Spanish
  93. Default : No
  94. Forced : No

  95. Text #4
  96. ID : 6
  97. Format : UTF-8
  98. Codec ID : S_TEXT/UTF8
  99. Codec ID/Info : UTF-8 Plain Text
  100. Duration : 2 h 17 min
  101. Bit rate : 3 b/s
  102. Count of elements : 86
  103. Stream size : 3.73 KiB (0%)
  104. Title : Spanish [SDH]
  105. Language : Spanish
  106. Default : No
  107. Forced : No
复制代码

王者理查德 / 王者理查(台) / 王者世家(港)/国王理查德4K.King.Richard.2021.2160p.HMAX.WEB-DL.x265.10bit.HDR.DDP5.1.Atmos-4k电影下载
国王理查德4K.King.Richard.2021.2160p.HMAX.WEB-DL.x265.10bit.HDR.DDP5.1.Atmos【4K HDR 18.84 GB】
[Hao4K]国王理查德4K.King.Richard.2021.2160p.HMAX.WEB-DL.x265.10bit.HDR.DDP5.1.Atmos-CM.torrent (24.2 KB, 售价: 3 个K币)
回复

使用道具 举报

全部回复4

daishuxuan 2

21-11-20 10:44

will Smith必看
回复 支持 反对

使用道具 举报

les5332295 3

21-11-20 10:59

王者理查德,说打网球的故事
回复 支持 反对

使用道具 举报

xiao672889282 4

21-11-20 22:01

哪里有字幕可以下呀
回复 支持 1 反对 0

使用道具 举报

dengke118 21-11-21 07:52 显示全部楼层

dengke118 5

21-11-21 07:52

没有字幕,谢谢分享!
回复 支持 反对

使用道具 举报

   发表回复

您需要登录后才可以回帖 登录 | 立即注册

返回列表 本版积分规则

  • 发布新帖

  • 客服/帮助

  • 手机APP

  • 返回顶部