微博 微信 APP

Hao4K影音

电视剧频道
电视剧封面:
电视剧名: 时光之轮 第一季4k
年  代: 2021  
国  家: 美国
类  别: 动作 冒险 剧情 奇幻 
语  言: 英语
字  幕: 英文原版
上映日期: 2021-11-19
文件格式: mkv    
视频效果: 4K(3840x2160)    
资源大小: 5.57 GB
片  长: 60 分钟
导  演: 乌塔·布里兹维茨 / 韦恩·叶 / 莎莉·理查德森 / 萨娜·汉姆利
剧情简介: Amazon直接预订改编自Robert Jordan小说的诗史奇幻剧《时光之轮 The Wheel of Time》,剧集版由Rafe Judkins负责制片。《时光之轮》小说系列共有14部+一部前传(后3部因作者Robert Jordan逝世,改由Brandon Sanderson接手),剧集讲述在一个魔法世界里,只有女性能使用一种被称为两极力的力量,而她们被称为两仪师。
  身为两仪师的女主Moiraine(Rosamund Pike饰)和五位年轻男女因故踏上了危险的世界旅程,同时间女主认为他们其中一员是「转生真龙」,在预言中主角一群要么是拯救世界的关键,要么会毁灭人类。
  Madeleine Madden饰演Egwene Al’Vere﹑Marcus Rutherford饰演Perrin Aybara﹑Barney Harris饰演Mat Cauthon﹑Zoë Robins饰演Nynaeve﹑Josha Stradowski饰演Rand Al’Thor。
  已卖出超过9000万本的《时光之轮》系列借鉴了欧洲及亚洲文化及哲学元素,而且有着佛教和印度教提及的时间理论。
时间之轮/时光之轮 第一季4k.The.Wheel.Of.Time.S01E01.2160p.AMZN.WEB-DL.x265.10bit.HDR10Plus.DDP5.1.Atmos-4k美剧信息
  1. Video
  2. ID : 1
  3. Format : HEVC
  4. Format/Info : High Efficiency Video Coding
  5. Format profile : Main 10@L5@Main
  6. HDR format : SMPTE ST 2094 App 4, Version 1, HDR10+ Profile B compatible
  7. Codec ID : V_MPEGH/ISO/HEVC
  8. Duration : 54 min 4 s
  9. Bit rate : 14.3 Mb/s
  10. Width : 3 840 pixels
  11. Height : 2 160 pixels
  12. Display aspect ratio : 16:9
  13. Frame rate mode : Constant
  14. Frame rate : 23.976 (24000/1001) FPS
  15. Color space : YUV
  16. Chroma subsampling : 4:2:0
  17. Bit depth : 10 bits
  18. Bits/(Pixel*Frame) : 0.072
  19. Stream size : 5.40 GiB (97%)
  20. Default : Yes
  21. Forced : No
  22. Color range : Limited
  23. Color primaries : BT.2020
  24. Transfer characteristics : PQ
  25. Matrix coefficients : BT.2020 non-constant
  26. Mastering display color primaries : Display P3
  27. Mastering display luminance : min: 0.0001 cd/m2, max: 1000 cd/m2
  28. Maximum Content Light Level : 996 cd/m2
  29. Maximum Frame-Average Light Level : 948 cd/m2

  30. Audio
  31. ID : 2
  32. Format : E-AC-3 JOC
  33. Format/Info : Enhanced AC-3 with Joint Object Coding
  34. Commercial name : Dolby Digital Plus with Dolby Atmos
  35. Codec ID : A_EAC3
  36. Duration : 54 min 4 s
  37. Bit rate mode : Constant
  38. Bit rate : 448 kb/s
  39. Channel(s) : 6 channels
  40. Channel layout : L R C LFE Ls Rs
  41. Sampling rate : 48.0 kHz
  42. Frame rate : 31.250 FPS (1536 SPF)
  43. Compression mode : Lossy
  44. Stream size : 173 MiB (3%)
  45. Title : English
  46. Language : English
  47. Service kind : Complete Main
  48. Default : No
  49. Forced : No
  50. Complexity index : 16
  51. Number of dynamic objects : 15
  52. Bed channel count : 1 channel
  53. Bed channel configuration : LFE

  54. Text #1
  55. ID : 3
  56. Format : UTF-8
  57. Codec ID : S_TEXT/UTF8
  58. Codec ID/Info : UTF-8 Plain Text
  59. Duration : 53 min 38 s
  60. Bit rate : 54 b/s
  61. Count of elements : 390
  62. Stream size : 21.3 KiB (0%)
  63. Title : Arabic
  64. Language : Arabic
  65. Default : No
  66. Forced : No

  67. Text #2
  68. ID : 4
  69. Format : UTF-8
  70. Codec ID : S_TEXT/UTF8
  71. Codec ID/Info : UTF-8 Plain Text
  72. Duration : 53 min 38 s
  73. Bit rate : 28 b/s
  74. Count of elements : 390
  75. Stream size : 11.0 KiB (0%)
  76. Title : Chinese (Simplified)
  77. Language : Chinese
  78. Default : No
  79. Forced : No

  80. Text #3
  81. ID : 5
  82. Format : UTF-8
  83. Codec ID : S_TEXT/UTF8
  84. Codec ID/Info : UTF-8 Plain Text
  85. Duration : 53 min 38 s
  86. Bit rate : 27 b/s
  87. Count of elements : 390
  88. Stream size : 11.0 KiB (0%)
  89. Title : Chinese (Traditional)
  90. Language : Chinese
  91. Default : No
  92. Forced : No

  93. Text #4
  94. ID : 6
  95. Format : UTF-8
  96. Codec ID : S_TEXT/UTF8
  97. Codec ID/Info : UTF-8 Plain Text
  98. Duration : 53 min 38 s
  99. Bit rate : 30 b/s
  100. Count of elements : 390
  101. Stream size : 12.1 KiB (0%)
  102. Title : Czech
  103. Language : Czech
  104. Default : No
  105. Forced : No
复制代码

时间之轮/时光之轮 第一季4k.The.Wheel.Of.Time.S01E01.2160p.AMZN.WEB-DL.x265.10bit.HDR10Plus.DDP5.1.Atmos-4k美剧下载

时光之轮 第一季4k.The.Wheel.Of.Time.S01E01.2160p.AMZN.WEB-DL.x265.10bit.HDR10Plus.DDP5.1.Atmos【5.57 GB】
[Hao4k]时光之轮 第一季4k.The.Wheel.Of.Time.S01E01.2160p.AMZN.WEB-DL.x265.10bit.HDR10Plus.DDP5.1.Atmos-MZABI.torrent (14.61 KB)
回复

使用道具 举报

全部回复6

bing983201 2

21-11-21 08:35

谢谢楼主分享精彩影视
回复 支持 2 反对 0

使用道具 举报

freeray 21-11-23 00:49 显示全部楼层

freeray 3

21-11-23 00:49

谢谢分享,喜欢这种魔幻风格的剧集
回复 支持 反对

使用道具 举报

yyfsun 21-11-26 21:10 显示全部楼层

yyfsun 4

21-11-26 21:10

有看过的朋友吗?片子怎么样啊?
回复 支持 反对

使用道具 举报

rbbrbbrbb 21-11-30 00:50 显示全部楼层

rbbrbbrbb 5

21-11-30 00:50

VERY GOOD

回复 支持 反对

使用道具 举报

wangyang 21-11-30 17:29 显示全部楼层

wangyang 6

21-11-30 17:29

谢谢楼主分享精
回复 支持 反对

使用道具 举报

paddlepaddle 7

21-12-1 19:16

谢谢分享
回复 支持 反对

使用道具 举报

   发表回复

您需要登录后才可以回帖 登录 | 立即注册

返回列表 本版积分规则

  • 发布新帖

  • 客服/帮助

  • 手机APP

  • 返回顶部