微博 微信 APP

Hao4K影音

电视剧频道
电视剧封面:
电视剧名: Harriet the Spy
年  代: 2021  
国  家: 美国
类  别: 动画 
语  言: 英语
字  幕: 英文原版
上映日期: 2021-11-19
文件格式: mkv    
视频效果: 4K(3840x2160)    
资源大小: 20.39 GB
片  长: -
导  演: 威尔·麦克罗伯
剧情简介: A curious 11-year-old who seeks to learn everything about anything in order to pursue her dreams of becoming a professional writer.
Harriet.The.Spy.S01.Part1.2160p.ATVP.WEB-DL.DDP5.1.Atmos.DV.MKV.x265-4k美剧信息
  1. Video
  2. ID : 1
  3. Format : HEVC
  4. Format/Info : High Efficiency Video Coding
  5. Format profile : Main 10@L5@High
  6. HDR format : Dolby Vision, Version 1.0, dvhe.05.06, BL+RPU
  7. Codec ID : V_MPEGH/ISO/HEVC
  8. Duration : 24 min 14 s
  9. Bit rate : 24.0 Mb/s
  10. Width : 3 840 pixels
  11. Height : 2 160 pixels
  12. Display aspect ratio : 16:9
  13. Frame rate mode : Constant
  14. Frame rate : 23.976 (24000/1001) FPS
  15. Color space : YUV
  16. Chroma subsampling : 4:2:0
  17. Bit depth : 10 bits
  18. Bits/(Pixel*Frame) : 0.120
  19. Stream size : 4.06 GiB (97%)
  20. Default : Yes
  21. Forced : No

  22. Audio
  23. ID : 2
  24. Format : E-AC-3 JOC
  25. Format/Info : Enhanced AC-3 with Joint Object Coding
  26. Commercial name : Dolby Digital Plus with Dolby Atmos
  27. Codec ID : A_EAC3
  28. Duration : 24 min 14 s
  29. Bit rate mode : Constant
  30. Bit rate : 768 kb/s
  31. Channel(s) : 6 channels
  32. Channel layout : L R C LFE Ls Rs
  33. Sampling rate : 48.0 kHz
  34. Frame rate : 31.250 FPS (1536 SPF)
  35. Compression mode : Lossy
  36. Stream size : 133 MiB (3%)
  37. Language : English
  38. Service kind : Complete Main
  39. Default : Yes
  40. Forced : No
  41. Complexity index : 16
  42. Number of dynamic objects : 15
  43. Bed channel count : 1 channel
  44. Bed channel configuration : LFE

  45. Text #1
  46. ID : 3
  47. Format : UTF-8
  48. Codec ID : S_TEXT/UTF8
  49. Codec ID/Info : UTF-8 Plain Text
  50. Duration : 24 min 2 s
  51. Bit rate : 69 b/s
  52. Count of elements : 342
  53. Stream size : 12.3 KiB (0%)
  54. Language : English
  55. Default : No
  56. Forced : No

  57. Text #2
  58. ID : 4
  59. Format : UTF-8
  60. Codec ID : S_TEXT/UTF8
  61. Codec ID/Info : UTF-8 Plain Text
  62. Duration : 24 min 2 s
  63. Bit rate : 78 b/s
  64. Count of elements : 381
  65. Stream size : 13.9 KiB (0%)
  66. Title : SDH
  67. Language : English
  68. Default : No
  69. Forced : No

  70. Text #3
  71. ID : 5
  72. Format : UTF-8
  73. Codec ID : S_TEXT/UTF8
  74. Codec ID/Info : UTF-8 Plain Text
  75. Duration : 24 min 5 s
  76. Bit rate : 104 b/s
  77. Count of elements : 348
  78. Stream size : 18.4 KiB (0%)
  79. Language : Arabic
  80. Default : No
  81. Forced : No

  82. Text #4
  83. ID : 6
  84. Format : UTF-8
  85. Codec ID : S_TEXT/UTF8
  86. Codec ID/Info : UTF-8 Plain Text
  87. Duration : 24 min 5 s
  88. Bit rate : 103 b/s
  89. Count of elements : 337
  90. Stream size : 18.2 KiB (0%)
  91. Language : Bulgarian
  92. Default : No
  93. Forced : No

  94. Text #5
  95. ID : 7
  96. Format : UTF-8
  97. Codec ID : S_TEXT/UTF8
  98. Codec ID/Info : UTF-8 Plain Text
  99. Duration : 24 min 5 s
  100. Bit rate : 64 b/s
  101. Count of elements : 347
  102. Stream size : 11.4 KiB (0%)
  103. Title : Simplified
  104. Language : Chinese
  105. Default : No
  106. Forced : No

  107. Text #6
  108. ID : 8
  109. Format : UTF-8
  110. Codec ID : S_TEXT/UTF8
  111. Codec ID/Info : UTF-8 Plain Text
  112. Duration : 24 min 5 s
  113. Bit rate : 67 b/s
  114. Count of elements : 348
  115. Stream size : 11.8 KiB (0%)
  116. Title : Traditional
  117. Language : Chinese
  118. Default : No
  119. Forced : No

  120. Text #7
  121. ID : 9
  122. Format : UTF-8
  123. Codec ID : S_TEXT/UTF8
  124. Codec ID/Info : UTF-8 Plain Text
  125. Duration : 24 min 5 s
  126. Bit rate : 66 b/s
  127. Count of elements : 333
  128. Stream size : 11.8 KiB (0%)
  129. Language : Czech
  130. Default : No
  131. Forced : No

  132. Text #8
  133. ID : 10
  134. Format : UTF-8
  135. Codec ID : S_TEXT/UTF8
  136. Codec ID/Info : UTF-8 Plain Text
  137. Duration : 24 min 5 s
  138. Bit rate : 67 b/s
  139. Count of elements : 318
  140. Stream size : 11.9 KiB (0%)
  141. Language : Danish
  142. Default : No
  143. Forced : No

  144. Text #9
  145. ID : 11
  146. Format : UTF-8
  147. Codec ID : S_TEXT/UTF8
  148. Codec ID/Info : UTF-8 Plain Text
  149. Duration : 23 min 57 s
  150. Bit rate : 81 b/s
  151. Count of elements : 352
  152. Stream size : 14.4 KiB (0%)
  153. Language : German
  154. Default : No
  155. Forced : No

  156. Text #10
  157. ID : 12
  158. Format : UTF-8
  159. Codec ID : S_TEXT/UTF8
  160. Codec ID/Info : UTF-8 Plain Text
  161. Duration : 24 min 5 s
  162. Bit rate : 126 b/s
  163. Count of elements : 347
  164. Stream size : 22.4 KiB (0%)
  165. Language : Greek
  166. Default : No
  167. Forced : No

  168. Text #11
  169. ID : 13
  170. Format : UTF-8
  171. Codec ID : S_TEXT/UTF8
  172. Codec ID/Info : UTF-8 Plain Text
  173. Duration : 24 min 5 s
  174. Bit rate : 73 b/s
  175. Count of elements : 357
  176. Stream size : 13.0 KiB (0%)
  177. Title : Latin American
  178. Language : Spanish
  179. Default : No
  180. Forced : No

  181. Text #12
  182. ID : 14
  183. Format : UTF-8
  184. Codec ID : S_TEXT/UTF8
  185. Codec ID/Info : UTF-8 Plain Text
  186. Duration : 24 min 4 s
  187. Bit rate : 76 b/s
  188. Count of elements : 355
  189. Stream size : 13.5 KiB (0%)
  190. Language : Spanish
  191. Default : No
  192. Forced : No

  193. Text #13
  194. ID : 15
  195. Format : UTF-8
  196. Codec ID : S_TEXT/UTF8
  197. Codec ID/Info : UTF-8 Plain Text
  198. Duration : 24 min 5 s
  199. Bit rate : 70 b/s
  200. Count of elements : 341
  201. Stream size : 12.4 KiB (0%)
  202. Language : Estonian
  203. Default : No
  204. Forced : No

  205. Text #14
  206. ID : 16
  207. Format : UTF-8
  208. Codec ID : S_TEXT/UTF8
  209. Codec ID/Info : UTF-8 Plain Text
  210. Duration : 24 min 5 s
  211. Bit rate : 66 b/s
  212. Count of elements : 347
  213. Stream size : 11.8 KiB (0%)
  214. Language : Finnish
  215. Default : No
  216. Forced : No

  217. Text #15
  218. ID : 17
  219. Format : UTF-8
  220. Codec ID : S_TEXT/UTF8
  221. Codec ID/Info : UTF-8 Plain Text
  222. Duration : 24 min 0 s
  223. Bit rate : 65 b/s
  224. Count of elements : 365
  225. Stream size : 11.5 KiB (0%)
  226. Title : Canadian
  227. Language : French
  228. Default : No
  229. Forced : No

  230. Text #16
  231. ID : 18
  232. Format : UTF-8
  233. Codec ID : S_TEXT/UTF8
  234. Codec ID/Info : UTF-8 Plain Text
  235. Duration : 24 min 0 s
  236. Bit rate : 65 b/s
  237. Count of elements : 365
  238. Stream size : 11.5 KiB (0%)
  239. Language : French
  240. Default : No
  241. Forced : No

  242. Text #17
  243. ID : 19
  244. Format : UTF-8
  245. Codec ID : S_TEXT/UTF8
  246. Codec ID/Info : UTF-8 Plain Text
  247. Duration : 24 min 5 s
  248. Bit rate : 100 b/s
  249. Count of elements : 348
  250. Stream size : 17.8 KiB (0%)
  251. Language : Hebrew
  252. Default : No
  253. Forced : No

  254. Text #18
  255. ID : 20
  256. Format : UTF-8
  257. Codec ID : S_TEXT/UTF8
  258. Codec ID/Info : UTF-8 Plain Text
  259. Duration : 24 min 5 s
  260. Bit rate : 196 b/s
  261. Count of elements : 348
  262. Stream size : 34.7 KiB (0%)
  263. Language : Hindi
  264. Default : No
  265. Forced : No

  266. Text #19
  267. ID : 21
  268. Format : UTF-8
  269. Codec ID : S_TEXT/UTF8
  270. Codec ID/Info : UTF-8 Plain Text
  271. Duration : 24 min 5 s
  272. Bit rate : 64 b/s
  273. Count of elements : 344
  274. Stream size : 11.4 KiB (0%)
  275. Language : Hungarian
  276. Default : No
  277. Forced : No

  278. Text #20
  279. ID : 22
  280. Format : UTF-8
  281. Codec ID : S_TEXT/UTF8
  282. Codec ID/Info : UTF-8 Plain Text
  283. Duration : 24 min 5 s
  284. Bit rate : 66 b/s
  285. Count of elements : 347
  286. Stream size : 11.7 KiB (0%)
  287. Language : Indonesian
  288. Default : No
  289. Forced : No

  290. Text #21
  291. ID : 23
  292. Format : UTF-8
  293. Codec ID : S_TEXT/UTF8
  294. Codec ID/Info : UTF-8 Plain Text
  295. Duration : 24 min 4 s
  296. Bit rate : 77 b/s
  297. Count of elements : 348
  298. Stream size : 13.7 KiB (0%)
  299. Language : Italian
  300. Default : No
  301. Forced : No

  302. Text #22
  303. ID : 24
  304. Format : UTF-8
  305. Codec ID : S_TEXT/UTF8
  306. Codec ID/Info : UTF-8 Plain Text
  307. Duration : 24 min 4 s
  308. Bit rate : 68 b/s
  309. Count of elements : 359
  310. Stream size : 12.1 KiB (0%)
  311. Language : Japanese
  312. Default : No
  313. Forced : No

  314. Text #23
  315. ID : 25
  316. Format : UTF-8
  317. Codec ID : S_TEXT/UTF8
  318. Codec ID/Info : UTF-8 Plain Text
  319. Duration : 24 min 5 s
  320. Bit rate : 79 b/s
  321. Count of elements : 348
  322. Stream size : 14.0 KiB (0%)
  323. Language : Korean
  324. Default : No
  325. Forced : No

  326. Text #24
  327. ID : 26
  328. Format : UTF-8
  329. Codec ID : S_TEXT/UTF8
  330. Codec ID/Info : UTF-8 Plain Text
  331. Duration : 24 min 5 s
  332. Bit rate : 65 b/s
  333. Count of elements : 344
  334. Stream size : 11.6 KiB (0%)
  335. Language : Lithuanian
  336. Default : No
  337. Forced : No

  338. Text #25
  339. ID : 27
  340. Format : UTF-8
  341. Codec ID : S_TEXT/UTF8
  342. Codec ID/Info : UTF-8 Plain Text
  343. Duration : 24 min 5 s
  344. Bit rate : 75 b/s
  345. Count of elements : 343
  346. Stream size : 13.3 KiB (0%)
  347. Language : Latvian
  348. Default : No
  349. Forced : No

  350. Text #26
  351. ID : 28
  352. Format : UTF-8
  353. Codec ID : S_TEXT/UTF8
  354. Codec ID/Info : UTF-8 Plain Text
  355. Duration : 24 min 5 s
  356. Bit rate : 68 b/s
  357. Count of elements : 347
  358. Stream size : 12.0 KiB (0%)
  359. Language : Malay
  360. Default : No
  361. Forced : No

  362. Text #27
  363. ID : 29
  364. Format : UTF-8
  365. Codec ID : S_TEXT/UTF8
  366. Codec ID/Info : UTF-8 Plain Text
  367. Duration : 24 min 5 s
  368. Bit rate : 70 b/s
  369. Count of elements : 320
  370. Stream size : 12.5 KiB (0%)
  371. Language : Dutch
  372. Default : No
  373. Forced : No

  374. Text #28
  375. ID : 30
  376. Format : UTF-8
  377. Codec ID : S_TEXT/UTF8
  378. Codec ID/Info : UTF-8 Plain Text
  379. Duration : 24 min 5 s
  380. Bit rate : 63 b/s
  381. Count of elements : 298
  382. Stream size : 11.2 KiB (0%)
  383. Language : Norwegian
  384. Default : No
  385. Forced : No

  386. Text #29
  387. ID : 31
  388. Format : UTF-8
  389. Codec ID : S_TEXT/UTF8
  390. Codec ID/Info : UTF-8 Plain Text
  391. Duration : 24 min 5 s
  392. Bit rate : 60 b/s
  393. Count of elements : 330
  394. Stream size : 10.7 KiB (0%)
  395. Language : Polish
  396. Default : No
  397. Forced : No

  398. Text #30
  399. ID : 32
  400. Format : UTF-8
  401. Codec ID : S_TEXT/UTF8
  402. Codec ID/Info : UTF-8 Plain Text
  403. Duration : 24 min 5 s
  404. Bit rate : 71 b/s
  405. Count of elements : 346
  406. Stream size : 12.7 KiB (0%)
  407. Title : Brazilian
  408. Language : Portuguese
  409. Default : No
  410. Forced : No

  411. Text #31
  412. ID : 33
  413. Format : UTF-8
  414. Codec ID : S_TEXT/UTF8
  415. Codec ID/Info : UTF-8 Plain Text
  416. Duration : 24 min 5 s
  417. Bit rate : 72 b/s
  418. Count of elements : 346
  419. Stream size : 12.8 KiB (0%)
  420. Language : Portuguese
  421. Default : No
  422. Forced : No

  423. Text #32
  424. ID : 34
  425. Format : UTF-8
  426. Codec ID : S_TEXT/UTF8
  427. Codec ID/Info : UTF-8 Plain Text
  428. Duration : 24 min 5 s
  429. Bit rate : 120 b/s
  430. Count of elements : 368
  431. Stream size : 21.3 KiB (0%)
  432. Language : Russian
  433. Default : No
  434. Forced : No

  435. Text #33
  436. ID : 35
  437. Format : UTF-8
  438. Codec ID : S_TEXT/UTF8
  439. Codec ID/Info : UTF-8 Plain Text
  440. Duration : 24 min 5 s
  441. Bit rate : 69 b/s
  442. Count of elements : 346
  443. Stream size : 12.3 KiB (0%)
  444. Language : Slovak
  445. Default : No
  446. Forced : No

  447. Text #34
  448. ID : 36
  449. Format : UTF-8
  450. Codec ID : S_TEXT/UTF8
  451. Codec ID/Info : UTF-8 Plain Text
  452. Duration : 24 min 5 s
  453. Bit rate : 60 b/s
  454. Count of elements : 319
  455. Stream size : 10.7 KiB (0%)
  456. Language : Slovenian
  457. Default : No
  458. Forced : No

  459. Text #35
  460. ID : 37
  461. Format : UTF-8
  462. Codec ID : S_TEXT/UTF8
  463. Codec ID/Info : UTF-8 Plain Text
  464. Duration : 24 min 5 s
  465. Bit rate : 63 b/s
  466. Count of elements : 332
  467. Stream size : 11.1 KiB (0%)
  468. Language : Swedish
  469. Default : No
  470. Forced : No

  471. Text #36
  472. ID : 38
  473. Format : UTF-8
  474. Codec ID : S_TEXT/UTF8
  475. Codec ID/Info : UTF-8 Plain Text
  476. Duration : 24 min 5 s
  477. Bit rate : 227 b/s
  478. Count of elements : 346
  479. Stream size : 40.2 KiB (0%)
  480. Language : Tamil
  481. Default : No
  482. Forced : No

  483. Text #37
  484. ID : 39
  485. Format : UTF-8
  486. Codec ID : S_TEXT/UTF8
  487. Codec ID/Info : UTF-8 Plain Text
  488. Duration : 24 min 5 s
  489. Bit rate : 202 b/s
  490. Count of elements : 347
  491. Stream size : 35.8 KiB (0%)
  492. Language : Telugu
  493. Default : No
  494. Forced : No

  495. Text #38
  496. ID : 40
  497. Format : UTF-8
  498. Codec ID : S_TEXT/UTF8
  499. Codec ID/Info : UTF-8 Plain Text
  500. Duration : 24 min 5 s
  501. Bit rate : 154 b/s
  502. Count of elements : 347
  503. Stream size : 27.2 KiB (0%)
  504. Language : Thai
  505. Default : No
  506. Forced : No

  507. Text #39
  508. ID : 41
  509. Format : UTF-8
  510. Codec ID : S_TEXT/UTF8
  511. Codec ID/Info : UTF-8 Plain Text
  512. Duration : 24 min 5 s
  513. Bit rate : 74 b/s
  514. Count of elements : 347
  515. Stream size : 13.1 KiB (0%)
  516. Language : Turkish
  517. Default : No
  518. Forced : No

  519. Text #40
  520. ID : 42
  521. Format : UTF-8
  522. Codec ID : S_TEXT/UTF8
  523. Codec ID/Info : UTF-8 Plain Text
  524. Duration : 24 min 5 s
  525. Bit rate : 109 b/s
  526. Count of elements : 347
  527. Stream size : 19.4 KiB (0%)
  528. Language : Ukrainian
  529. Default : No
  530. Forced : No

  531. Text #41
  532. ID : 43
  533. Format : UTF-8
  534. Codec ID : S_TEXT/UTF8
  535. Codec ID/Info : UTF-8 Plain Text
  536. Duration : 24 min 5 s
  537. Bit rate : 91 b/s
  538. Count of elements : 348
  539. Stream size : 16.2 KiB (0%)
  540. Language : Vietnamese
  541. Default : No
  542. Forced : No

  543. Text #42
  544. ID : 44
  545. Format : UTF-8
  546. Codec ID : S_TEXT/UTF8
  547. Codec ID/Info : UTF-8 Plain Text
  548. Duration : 24 min 5 s
  549. Bit rate : 66 b/s
  550. Count of elements : 348
  551. Stream size : 11.7 KiB (0%)
  552. Title : Cantonese
  553. Language : Chinese
  554. Default : No
  555. Forced : No
复制代码

Harriet.The.Spy.S01.Part1.2160p.ATVP.WEB-DL.DDP5.1.Atmos.DV.MKV.x265-4k美剧下载

Harriet.The.Spy.S01.Part1.2160p.ATVP.WEB-DL.DDP5.1.Atmos.DV.MKV.x265自带中文【杜比视界 20.39 GB】
Harriet.The.Spy.S01.Part1.2160p.ATVP.WEB-DL.DDP5.1.Atmos.DV.MKV.x265-NOSiViD.torrent (26.56 KB)
回复

使用道具 举报

   发表回复

您需要登录后才可以回帖 登录 | 立即注册

返回列表 本版积分规则

  • 发布新帖

  • 客服/帮助

  • 手机APP

  • 返回顶部