微博 微信 手机APP

Hao4K影音

电影频道
电影封面:
片  名: 圆梦巨人4k
电影分类: 冒险 奇幻 
国  家: 美国 英国 
年  代: 2016年
分 辨 率: 4K(3840x2160)
电影格式: MKV|REMUX 
画质标准: HDR Dolby Vision 
音质编码: Dolby-TrueHD 
电影声道: 7.1声道 
帧数/FPS: 23.976 帧
电影语言: 中文简体 中文繁体 英文原版 
资源大小: 21.52 GB
导  演: 史蒂文·斯皮尔伯格
豆瓣评分: 6.8 分
中文字幕: /thread-64581-1-1.html
剧情简介: 生活在孤儿院的小女孩苏菲(鲁比·巴恩希尔 Ruby Barnhill 饰)总是闷闷不乐。某天的凌晨三点,她独自趴在窗口守望长夜,却无意中见到一个身形巨大的巨人(马克·里朗斯 Mark Rylance 饰)。巨人被发现后惊慌失措,匆忙中抓起苏菲一路飞奔,回到了他所在的巨人国。幸运的是这个被称作好心眼儿的巨人人如其名,他不像其他同类一样以“人豆子”为食,只吃水果和蔬菜,而且他还会把寻找到的美梦送入孩子们的梦想。这也算是对同类暴行的一种补偿。兴许是拥有共同的孤独感和善良,小小的苏菲和高大的好心眼儿慢慢熟络,并彼此信任,他们成为了毫无芥蒂和隐藏的好朋友……
  本片根据著名儿童文学作家罗尔德•达尔的同名原著改编。
吹梦巨人(港) / 好心眼儿巨人/圆梦巨人4k.The.BFG.2016.2160p.DSNP.WEB-DL.x265.10bit.HDR.DTS-HD.MA.TrueHD.7.1.Atmos-4k杜比视界电影信息
  1. Video
  2. ID : 1
  3. Format : HEVC
  4. Format/Info : High Efficiency Video Coding
  5. Format profile : Main 10@L5@High
  6. HDR format : SMPTE ST 2086, HDR10 compatible
  7. Codec ID : V_MPEGH/ISO/HEVC
  8. Duration : 1 h 57 min
  9. Bit rate : 16.5 Mb/s
  10. Width : 3 840 pixels
  11. Height : 2 160 pixels
  12. Display aspect ratio : 16:9
  13. Frame rate mode : Constant
  14. Frame rate : 23.976 (24000/1001) FPS
  15. Color space : YUV
  16. Chroma subsampling : 4:2:0
  17. Bit depth : 10 bits
  18. Bits/(Pixel*Frame) : 0.083
  19. Stream size : 13.6 GiB (63%)
  20. Default : Yes
  21. Forced : No
  22. Color range : Limited
  23. Color primaries : BT.2020
  24. Transfer characteristics : PQ
  25. Matrix coefficients : BT.2020 non-constant
  26. Mastering display color primaries : Display P3
  27. Mastering display luminance : min: 0.0001 cd/m2, max: 1000 cd/m2

  28. Audio #1
  29. ID : 2
  30. Format : MLP FBA 16-ch
  31. Format/Info : Meridian Lossless Packing FBA with 16-channel presentation
  32. Commercial name : Dolby TrueHD with Dolby Atmos
  33. Codec ID : A_TRUEHD
  34. Duration : 1 h 57 min
  35. Bit rate mode : Variable
  36. Bit rate : 4 583 kb/s
  37. Maximum bit rate : 7 287 kb/s
  38. Channel(s) : 8 channels
  39. Channel layout : L R C LFE Ls Rs Lb Rb
  40. Sampling rate : 48.0 kHz
  41. Frame rate : 1 200.000 FPS (40 SPF)
  42. Compression mode : Lossless
  43. Delay relative to video : 30 s 500 ms
  44. Stream size : 3.75 GiB (17%)
  45. Title : TrueHD 7.1 Atmos
  46. Language : English
  47. Default : Yes
  48. Forced : No
  49. Number of dynamic objects : 11
  50. Bed channel count : 1 channel
  51. Bed channel configuration : LFE

  52. Audio #2
  53. ID : 3
  54. Format : DTS XLL
  55. Format/Info : Digital Theater Systems
  56. Commercial name : DTS-HD Master Audio
  57. Codec ID : A_DTS
  58. Duration : 1 h 57 min
  59. Bit rate mode : Variable
  60. Bit rate : 3 681 kb/s
  61. Channel(s) : 8 channels
  62. Channel layout : C L R LFE Lb Rb Lss Rss
  63. Sampling rate : 48.0 kHz
  64. Frame rate : 93.750 FPS (512 SPF)
  65. Bit depth : 24 bits
  66. Compression mode : Lossless
  67. Delay relative to video : 30 s 500 ms
  68. Stream size : 3.01 GiB (14%)
  69. Title : DTS-HD MA 7.1
  70. Language : English
  71. Default : Yes
  72. Forced : No

  73. Audio #3
  74. ID : 4
  75. Format : AC-3
  76. Format/Info : Audio Coding 3
  77. Commercial name : Dolby Digital
  78. Format settings : Dolby Surround EX
  79. Codec ID : A_AC3
  80. Duration : 1 h 57 min
  81. Bit rate mode : Constant
  82. Bit rate : 640 kb/s
  83. Channel(s) : 6 channels
  84. Channel layout : L R C LFE Ls Rs
  85. Sampling rate : 48.0 kHz
  86. Frame rate : 31.250 FPS (1536 SPF)
  87. Compression mode : Lossy
  88. Delay relative to video : 30 s 500 ms
  89. Stream size : 536 MiB (2%)
  90. Title : DD 5.1
  91. Language : English
  92. Service kind : Complete Main
  93. Default : No
  94. Forced : No

  95. Audio #4
  96. ID : 5
  97. Format : E-AC-3 JOC
  98. Format/Info : Enhanced AC-3 with Joint Object Coding
  99. Commercial name : Dolby Digital Plus with Dolby Atmos
  100. Codec ID : A_EAC3
  101. Duration : 1 h 57 min
  102. Bit rate mode : Constant
  103. Bit rate : 768 kb/s
  104. Channel(s) : 6 channels
  105. Channel layout : L R C LFE Ls Rs
  106. Sampling rate : 48.0 kHz
  107. Frame rate : 31.250 FPS (1536 SPF)
  108. Bit depth : 32 bits
  109. Compression mode : Lossy
  110. Stream size : 646 MiB (3%)
  111. Language : English
  112. Service kind : Complete Main
  113. Default : No
  114. Forced : No
  115. Complexity index : 16
  116. Number of dynamic objects : 15
  117. Bed channel count : 1 channel
  118. Bed channel configuration : LFE

  119. Text #1
  120. ID : 6
  121. Format : UTF-8
  122. Codec ID : S_TEXT/UTF8
  123. Codec ID/Info : UTF-8 Plain Text
  124. Duration : 1 h 45 min
  125. Bit rate : 32 b/s
  126. Count of elements : 980
  127. Stream size : 25.0 KiB (0%)
  128. Language : English
  129. Default : Yes
  130. Forced : No

  131. Text #2
  132. ID : 7
  133. Format : UTF-8
  134. Codec ID : S_TEXT/UTF8
  135. Codec ID/Info : UTF-8 Plain Text
  136. Duration : 1 h 48 min
  137. Bit rate : 37 b/s
  138. Count of elements : 1239
  139. Stream size : 29.3 KiB (0%)
  140. Title : SDH
  141. Language : English
  142. Default : No
  143. Forced : No

  144. Text #3
  145. ID : 8
  146. Format : UTF-8
  147. Codec ID : S_TEXT/UTF8
  148. Codec ID/Info : UTF-8 Plain Text
  149. Duration : 1 h 45 min
  150. Bit rate : 42 b/s
  151. Count of elements : 1126
  152. Stream size : 32.8 KiB (0%)
  153. Title : Canadian
  154. Language : French
  155. Default : No
  156. Forced : No

  157. Text #4
  158. ID : 9
  159. Format : UTF-8
  160. Codec ID : S_TEXT/UTF8
  161. Codec ID/Info : UTF-8 Plain Text
  162. Duration : 1 h 47 min
  163. Bit rate : 46 b/s
  164. Count of elements : 1379
  165. Stream size : 37.0 KiB (0%)
  166. Title : Canadian (SDH)
  167. Language : French
  168. Default : No
  169. Forced : No

  170. Text #5
  171. ID : 10
  172. Format : UTF-8
  173. Codec ID : S_TEXT/UTF8
  174. Codec ID/Info : UTF-8 Plain Text
  175. Duration : 1 h 55 min
  176. Bit rate : 28 b/s
  177. Count of elements : 893
  178. Stream size : 24.4 KiB (0%)
  179. Language : Danish
  180. Default : No
  181. Forced : No

  182. Text #6
  183. ID : 11
  184. Format : UTF-8
  185. Codec ID : S_TEXT/UTF8
  186. Codec ID/Info : UTF-8 Plain Text
  187. Duration : 1 h 46 min
  188. Bit rate : 31 b/s
  189. Count of elements : 880
  190. Stream size : 24.7 KiB (0%)
  191. Language : German
  192. Default : No
  193. Forced : No

  194. Text #7
  195. ID : 12
  196. Format : UTF-8
  197. Codec ID : S_TEXT/UTF8
  198. Codec ID/Info : UTF-8 Plain Text
  199. Duration : 1 h 48 min
  200. Bit rate : 31 b/s
  201. Count of elements : 881
  202. Stream size : 25.2 KiB (0%)
  203. Title : Latin American
  204. Language : Spanish
  205. Default : No
  206. Forced : No

  207. Text #8
  208. ID : 13
  209. Format : UTF-8
  210. Codec ID : S_TEXT/UTF8
  211. Codec ID/Info : UTF-8 Plain Text
  212. Duration : 1 h 55 min
  213. Bit rate : 28 b/s
  214. Count of elements : 889
  215. Stream size : 24.2 KiB (0%)
  216. Title : European
  217. Language : Spanish
  218. Default : No
  219. Forced : No

  220. Text #9
  221. ID : 14
  222. Format : UTF-8
  223. Codec ID : S_TEXT/UTF8
  224. Codec ID/Info : UTF-8 Plain Text
  225. Duration : 1 h 55 min
  226. Bit rate : 25 b/s
  227. Count of elements : 885
  228. Stream size : 21.6 KiB (0%)
  229. Language : Finnish
  230. Default : No
  231. Forced : No

  232. Text #10
  233. ID : 15
  234. Format : UTF-8
  235. Codec ID : S_TEXT/UTF8
  236. Codec ID/Info : UTF-8 Plain Text
  237. Duration : 1 h 55 min
  238. Bit rate : 29 b/s
  239. Count of elements : 882
  240. Stream size : 25.0 KiB (0%)
  241. Language : French
  242. Default : No
  243. Forced : No

  244. Text #11
  245. ID : 16
  246. Format : UTF-8
  247. Codec ID : S_TEXT/UTF8
  248. Codec ID/Info : UTF-8 Plain Text
  249. Duration : 1 h 55 min
  250. Bit rate : 29 b/s
  251. Count of elements : 893
  252. Stream size : 24.6 KiB (0%)
  253. Language : Italian
  254. Default : No
  255. Forced : No

  256. Text #12
  257. ID : 17
  258. Format : UTF-8
  259. Codec ID : S_TEXT/UTF8
  260. Codec ID/Info : UTF-8 Plain Text
  261. Duration : 1 h 55 min
  262. Bit rate : 30 b/s
  263. Count of elements : 834
  264. Stream size : 25.9 KiB (0%)
  265. Language : Japanese
  266. Default : No
  267. Forced : No

  268. Text #13
  269. ID : 18
  270. Format : UTF-8
  271. Codec ID : S_TEXT/UTF8
  272. Codec ID/Info : UTF-8 Plain Text
  273. Duration : 1 h 48 min
  274. Bit rate : 33 b/s
  275. Count of elements : 880
  276. Stream size : 26.8 KiB (0%)
  277. Language : Korean
  278. Default : No
  279. Forced : No

  280. Text #14
  281. ID : 19
  282. Format : UTF-8
  283. Codec ID : S_TEXT/UTF8
  284. Codec ID/Info : UTF-8 Plain Text
  285. Duration : 1 h 55 min
  286. Bit rate : 28 b/s
  287. Count of elements : 877
  288. Stream size : 23.6 KiB (0%)
  289. Language : Dutch
  290. Default : No
  291. Forced : No

  292. Text #15
  293. ID : 20
  294. Format : UTF-8
  295. Codec ID : S_TEXT/UTF8
  296. Codec ID/Info : UTF-8 Plain Text
  297. Duration : 1 h 55 min
  298. Bit rate : 27 b/s
  299. Count of elements : 891
  300. Stream size : 23.1 KiB (0%)
  301. Language : Norwegian
  302. Default : No
  303. Forced : No

  304. Text #16
  305. ID : 21
  306. Format : UTF-8
  307. Codec ID : S_TEXT/UTF8
  308. Codec ID/Info : UTF-8 Plain Text
  309. Duration : 1 h 55 min
  310. Bit rate : 28 b/s
  311. Count of elements : 891
  312. Stream size : 24.1 KiB (0%)
  313. Language : Portuguese
  314. Default : No
  315. Forced : No

  316. Text #17
  317. ID : 22
  318. Format : UTF-8
  319. Codec ID : S_TEXT/UTF8
  320. Codec ID/Info : UTF-8 Plain Text
  321. Duration : 1 h 55 min
  322. Bit rate : 26 b/s
  323. Count of elements : 893
  324. Stream size : 22.8 KiB (0%)
  325. Language : Swedish
  326. Default : No
  327. Forced : No

  328. Text #18
  329. ID : 23
  330. Format : UTF-8
  331. Codec ID : S_TEXT/UTF8
  332. Codec ID/Info : UTF-8 Plain Text
  333. Duration : 1 h 48 min
  334. Bit rate : 26 b/s
  335. Count of elements : 878
  336. Stream size : 20.9 KiB (0%)
  337. Title : Hong Kong
  338. Language : Chinese
  339. Default : No
  340. Forced : No

  341. Text #19
  342. ID : 24
  343. Format : UTF-8
  344. Codec ID : S_TEXT/UTF8
  345. Codec ID/Info : UTF-8 Plain Text
  346. Duration : 1 h 56 min
  347. Bit rate : 24 b/s
  348. Count of elements : 859
  349. Stream size : 21.0 KiB (0%)
  350. Title : Simplified
  351. Language : Chinese
  352. Default : No
  353. Forced : No

  354. Text #20
  355. ID : 25
  356. Format : UTF-8
  357. Codec ID : S_TEXT/UTF8
  358. Codec ID/Info : UTF-8 Plain Text
  359. Duration : 1 h 48 min
  360. Bit rate : 26 b/s
  361. Count of elements : 901
  362. Stream size : 21.2 KiB (0%)
  363. Title : Traditional
  364. Language : Chinese
  365. Default : No
  366. Forced : No
复制代码

吹梦巨人(港) / 好心眼儿巨人/圆梦巨人4k.The.BFG.2016.2160p.DSNP.WEB-DL.x265.10bit.HDR.DTS-HD.MA.TrueHD.7.1.Atmos-杜比视界4k电影下载

圆梦巨人4k.The.BFG.2016.2160p.DSNP.WEB-DL.x265.10bit.HDR.DTS-HD.MA.TrueHD.7.1.Atmos【4k HDR 21.52 GB】
[Hao4k]圆梦巨人4k.The.BFG.2016.2160p.DSNP.WEB-DL.x265.10bit.HDR.DTS-HD.MA.TrueHD.7.1.Atmos-SWTYBLZ.torrent (27.59 KB, 售价: 2 个K币)
回复

使用道具 举报

   发表回复

您需要登录后才可以回帖 登录 | 立即注册

返回列表 本版积分规则

  • 发布新帖

  • 客服/帮助

  • 手机APP

  • 返回顶部