微博 微信 APP

Hao4K影音

电影频道
电影封面:
片  名: 致埃文·汉森4k
电影分类: 剧情 歌舞 
国  家: 美国 
年  代: 2021年
分 辨 率: 4K(3840x2160)
电影格式: MKV|REMUX 
画质标准: HDR SDR 
音质编码: Dolby-Atmos Dolby Digital Plus Audio 
电影声道: 5.1声道 
帧数/FPS: 23.976 帧
电影语言: 英文原版 
资源大小: 14.42 GB
导  演: 斯蒂芬·卓博斯基
豆瓣评分: 6.8 分
中文字幕: -
剧情简介: 聚焦青少年自杀、心理疾病等问题,讲述一个深受社交恐惧折磨的高中生编造故事,试图接近一个已自杀的同学的家庭。对“局外人”、心理创伤和人性的探讨细腻、私人,触动心灵。
亲爱的埃文·汉森/致埃文·汉森4k.Dear.Evan.Hansen.2021.2160p.WEB-DL.x265.10bit.HDR.DDP5.1.Atmos-4k电影信息
  1. Video
  2. ID : 1
  3. Format : HEVC
  4. Format/Info : High Efficiency Video Coding
  5. Format profile : Main 10@L5@High
  6. HDR format : SMPTE ST 2086, HDR10 compatible
  7. Codec ID : V_MPEGH/ISO/HEVC
  8. Duration : 2 h 17 min
  9. Bit rate : 14.3 Mb/s
  10. Width : 3 840 pixels
  11. Height : 1 606 pixels
  12. Display aspect ratio : 2.40:1
  13. Frame rate mode : Constant
  14. Frame rate : 23.976 FPS
  15. Color space : YUV
  16. Chroma subsampling : 4:2:0 (Type 2)
  17. Bit depth : 10 bits
  18. Bits/(Pixel*Frame) : 0.096
  19. Stream size : 13.7 GiB (95%)
  20. Language : English
  21. Default : Yes
  22. Forced : No
  23. Color range : Limited
  24. Color primaries : BT.2020
  25. Transfer characteristics : PQ
  26. Matrix coefficients : BT.2020 non-constant
  27. Mastering display color primaries : BT.2020
  28. Mastering display luminance : min: 0.0050 cd/m2, max: 1000 cd/m2
  29. Maximum Content Light Level : 477 cd/m2
  30. Maximum Frame-Average Light Level : 57 cd/m2

  31. Audio
  32. ID : 2
  33. Format : E-AC-3 JOC
  34. Format/Info : Enhanced AC-3 with Joint Object Coding
  35. Commercial name : Dolby Digital Plus with Dolby Atmos
  36. Codec ID : A_EAC3
  37. Duration : 2 h 17 min
  38. Bit rate mode : Constant
  39. Bit rate : 768 kb/s
  40. Channel(s) : 6 channels
  41. Channel layout : L R C LFE Ls Rs
  42. Sampling rate : 48.0 kHz
  43. Frame rate : 31.250 FPS (1536 SPF)
  44. Compression mode : Lossy
  45. Stream size : 754 MiB (5%)
  46. Title : English
  47. Language : English
  48. Service kind : Complete Main
  49. Default : Yes
  50. Forced : No
  51. Complexity index : 16
  52. Number of dynamic objects : 15
  53. Bed channel count : 1 channel
  54. Bed channel configuration : LFE

  55. Text
  56. ID : 3
  57. Format : UTF-8
  58. Codec ID : S_TEXT/UTF8
  59. Codec ID/Info : UTF-8 Plain Text
  60. Duration : 2 h 16 min
  61. Bit rate : 70 b/s
  62. Count of elements : 2225
  63. Stream size : 70.7 KiB (0%)
  64. Language : English
  65. Default : Yes
  66. Forced : No
复制代码

亲爱的埃文·汉森/致埃文·汉森4k.Dear.Evan.Hansen.2021.2160p.WEB-DL.x265.10bit.HDR.DDP5.1.Atmos-4k电影下载

致埃文·汉森4k.Dear.Evan.Hansen.2021.2160p.WEB-DL.x265.10bit.HDR.DDP5.1.Atmos【4k HDR 14.42 GB】
[Hao4K]致埃文·汉森4K.Dear.Evan.Hansen.2021.2160p.WEB-DL.x265.10bit.HDR.DDP5.1.Atmos-NOGRP.torrent (18.68 KB, 售价: 2 个K币)
回复

使用道具 举报

全部回复1

bakerloo 2

21-12-5 09:29

音乐剧,赞
回复 支持 反对

使用道具 举报

   发表回复

您需要登录后才可以回帖 登录 | 立即注册

返回列表 本版积分规则

  • 发布新帖

  • 客服/帮助

  • 手机APP

  • 返回顶部