微博 微信 手机APP

Hao4K影音

电视剧频道
电视剧封面:
电视剧名: 吸血鬼生活 第一季4k
年  代: 2019  
国  家: 美国
类  别: 喜剧 奇幻 
语  言: 英语
字  幕: 英文原版
上映日期: 2019-03-27
文件格式: mkv    
视频效果: 4K(3840x2160)    
资源大小: 26.30 GB
片  长: 28 分钟
导  演: 塔伊加·维迪提 / 杰森·威奈勒 / 杰姬·凡·比克
剧情简介:  根据伪纪录片电影《吸血鬼生活 What We Do in the Shadows》改编,FX同名喜剧定于美国时间3月27日首播,这部首季10集半小时喜剧由原片的Jemaine Clement及Taika Waititi分别负责剧本及执导,Kayvan Novak﹑Matt Berry﹑Natasia Demetriou及Harvey Guillen主演。
  电影剧情讲述三个住在纽西兰威灵顿的吸血鬼Viago﹑Deacon及Vladislav,他们纵然是不死生物,但还是得入乡随俗过类似人类的生活,例如想办法付租金﹑做家务﹑混夜总会及应付室友之间的冲突。
  在剧版《吸血鬼生活》中,Kayvan Novak饰演Nandor,吸血鬼家中的头子﹑Matt Berry饰演Lazslo,是个耍笨搞笑的存在﹑Natasia Demetriou饰演Nadja,强悍的女吸血鬼﹑Harvey Guillen饰演Nandor的助手。
低俗僵尸玩出征(港) / 吸血鬼家庭尸篇(台)/吸血鬼生活 第一季4k.What.We.Do.in.the.Shadows.S01.2160p.DSNP.WEB-DL.x265.10bit.HDR.DDP5.1-4k美剧信息
  1. Video
  2. ID : 1
  3. Format : HEVC
  4. Format/Info : High Efficiency Video Coding
  5. Format profile : Main 10@L5@High
  6. HDR format : SMPTE ST 2086, HDR10 compatible
  7. Codec ID : V_MPEGH/ISO/HEVC
  8. Duration : 28 min 37 s
  9. Bit rate : 16.2 Mb/s
  10. Width : 3 840 pixels
  11. Height : 2 160 pixels
  12. Display aspect ratio : 16:9
  13. Frame rate mode : Constant
  14. Frame rate : 23.976 (24000/1001) FPS
  15. Color space : YUV
  16. Chroma subsampling : 4:2:0
  17. Bit depth : 10 bits
  18. Bits/(Pixel*Frame) : 0.081
  19. Stream size : 3.24 GiB (98%)
  20. Default : Yes
  21. Forced : No
  22. Color range : Limited
  23. Color primaries : BT.2020
  24. Transfer characteristics : PQ
  25. Matrix coefficients : BT.2020 non-constant
  26. Mastering display color primaries : BT.2020
  27. Mastering display luminance : min: 0.0010 cd/m2, max: 1000 cd/m2

  28. Audio
  29. ID : 2
  30. Format : E-AC-3
  31. Format/Info : Enhanced AC-3
  32. Commercial name : Dolby Digital Plus
  33. Codec ID : A_EAC3
  34. Duration : 28 min 37 s
  35. Bit rate mode : Constant
  36. Bit rate : 256 kb/s
  37. Channel(s) : 6 channels
  38. Channel layout : L R C LFE Ls Rs
  39. Sampling rate : 48.0 kHz
  40. Frame rate : 31.250 FPS (1536 SPF)
  41. Compression mode : Lossy
  42. Stream size : 52.4 MiB (2%)
  43. Language : English
  44. Service kind : Complete Main
  45. Default : Yes
  46. Forced : No

  47. Text #1
  48. ID : 3
  49. Format : UTF-8
  50. Codec ID : S_TEXT/UTF8
  51. Codec ID/Info : UTF-8 Plain Text
  52. Duration : 28 min 26 s
  53. Bit rate : 78 b/s
  54. Count of elements : 524
  55. Stream size : 16.3 KiB (0%)
  56. Title : Brazilian
  57. Language : Portuguese
  58. Default : No
  59. Forced : No

  60. Text #2
  61. ID : 4
  62. Format : UTF-8
  63. Codec ID : S_TEXT/UTF8
  64. Codec ID/Info : UTF-8 Plain Text
  65. Duration : 28 min 29 s
  66. Bit rate : 94 b/s
  67. Count of elements : 687
  68. Stream size : 19.7 KiB (0%)
  69. Title : SDH
  70. Language : English
  71. Default : No
  72. Forced : No

  73. Text #3
  74. ID : 5
  75. Format : UTF-8
  76. Codec ID : S_TEXT/UTF8
  77. Codec ID/Info : UTF-8 Plain Text
  78. Duration : 28 min 16 s
  79. Bit rate : 74 b/s
  80. Count of elements : 481
  81. Stream size : 15.5 KiB (0%)
  82. Language : Danish
  83. Default : No
  84. Forced : No

  85. Text #4
  86. ID : 6
  87. Format : UTF-8
  88. Codec ID : S_TEXT/UTF8
  89. Codec ID/Info : UTF-8 Plain Text
  90. Duration : 28 min 16 s
  91. Bit rate : 78 b/s
  92. Count of elements : 519
  93. Stream size : 16.2 KiB (0%)
  94. Language : German
  95. Default : No
  96. Forced : No

  97. Text #5
  98. ID : 7
  99. Format : UTF-8
  100. Codec ID : S_TEXT/UTF8
  101. Codec ID/Info : UTF-8 Plain Text
  102. Duration : 28 min 16 s
  103. Bit rate : 78 b/s
  104. Count of elements : 518
  105. Stream size : 16.2 KiB (0%)
  106. Title : Latin American
  107. Language : Spanish
  108. Default : No
  109. Forced : No

  110. Text #6
  111. ID : 8
  112. Format : UTF-8
  113. Codec ID : S_TEXT/UTF8
  114. Codec ID/Info : UTF-8 Plain Text
  115. Duration : 28 min 25 s
  116. Bit rate : 76 b/s
  117. Count of elements : 459
  118. Stream size : 15.9 KiB (0%)
  119. Title : European
  120. Language : Spanish
  121. Default : No
  122. Forced : No

  123. Text #7
  124. ID : 9
  125. Format : UTF-8
  126. Codec ID : S_TEXT/UTF8
  127. Codec ID/Info : UTF-8 Plain Text
  128. Duration : 28 min 16 s
  129. Bit rate : 80 b/s
  130. Count of elements : 521
  131. Stream size : 16.7 KiB (0%)
  132. Language : Finnish
  133. Default : No
  134. Forced : No

  135. Text #8
  136. ID : 10
  137. Format : UTF-8
  138. Codec ID : S_TEXT/UTF8
  139. Codec ID/Info : UTF-8 Plain Text
  140. Duration : 28 min 25 s
  141. Bit rate : 69 b/s
  142. Count of elements : 544
  143. Stream size : 14.5 KiB (0%)
  144. Language : French
  145. Default : No
  146. Forced : No

  147. Text #9
  148. ID : 11
  149. Format : UTF-8
  150. Codec ID : S_TEXT/UTF8
  151. Codec ID/Info : UTF-8 Plain Text
  152. Duration : 27 min 59 s
  153. Bit rate : 78 b/s
  154. Count of elements : 407
  155. Stream size : 16.1 KiB (0%)
  156. Language : Italian
  157. Default : No
  158. Forced : No

  159. Text #10
  160. ID : 12
  161. Format : UTF-8
  162. Codec ID : S_TEXT/UTF8
  163. Codec ID/Info : UTF-8 Plain Text
  164. Duration : 28 min 16 s
  165. Bit rate : 67 b/s
  166. Count of elements : 539
  167. Stream size : 14.0 KiB (0%)
  168. Language : Japanese
  169. Default : No
  170. Forced : No

  171. Text #11
  172. ID : 13
  173. Format : UTF-8
  174. Codec ID : S_TEXT/UTF8
  175. Codec ID/Info : UTF-8 Plain Text
  176. Duration : 28 min 16 s
  177. Bit rate : 84 b/s
  178. Count of elements : 532
  179. Stream size : 17.6 KiB (0%)
  180. Language : Korean
  181. Default : No
  182. Forced : No

  183. Text #12
  184. ID : 14
  185. Format : UTF-8
  186. Codec ID : S_TEXT/UTF8
  187. Codec ID/Info : UTF-8 Plain Text
  188. Duration : 28 min 16 s
  189. Bit rate : 62 b/s
  190. Count of elements : 441
  191. Stream size : 12.8 KiB (0%)
  192. Language : Dutch
  193. Default : No
  194. Forced : No

  195. Text #13
  196. ID : 15
  197. Format : UTF-8
  198. Codec ID : S_TEXT/UTF8
  199. Codec ID/Info : UTF-8 Plain Text
  200. Duration : 28 min 16 s
  201. Bit rate : 74 b/s
  202. Count of elements : 522
  203. Stream size : 15.5 KiB (0%)
  204. Language : Norwegian
  205. Default : No
  206. Forced : No

  207. Text #14
  208. ID : 16
  209. Format : UTF-8
  210. Codec ID : S_TEXT/UTF8
  211. Codec ID/Info : UTF-8 Plain Text
  212. Duration : 28 min 25 s
  213. Bit rate : 57 b/s
  214. Count of elements : 432
  215. Stream size : 11.9 KiB (0%)
  216. Language : Polish
  217. Default : No
  218. Forced : No

  219. Text #15
  220. ID : 17
  221. Format : UTF-8
  222. Codec ID : S_TEXT/UTF8
  223. Codec ID/Info : UTF-8 Plain Text
  224. Duration : 28 min 24 s
  225. Bit rate : 74 b/s
  226. Count of elements : 519
  227. Stream size : 15.5 KiB (0%)
  228. Language : Portuguese
  229. Default : No
  230. Forced : No

  231. Text #16
  232. ID : 18
  233. Format : UTF-8
  234. Codec ID : S_TEXT/UTF8
  235. Codec ID/Info : UTF-8 Plain Text
  236. Duration : 28 min 16 s
  237. Bit rate : 78 b/s
  238. Count of elements : 524
  239. Stream size : 16.3 KiB (0%)
  240. Language : Swedish
  241. Default : No
  242. Forced : No

  243. Text #17
  244. ID : 19
  245. Format : UTF-8
  246. Codec ID : S_TEXT/UTF8
  247. Codec ID/Info : UTF-8 Plain Text
  248. Duration : 28 min 16 s
  249. Bit rate : 72 b/s
  250. Count of elements : 536
  251. Stream size : 15.0 KiB (0%)
  252. Language : Chinese
  253. Default : No
  254. Forced : No

  255. Text #18
  256. ID : 20
  257. Format : UTF-8
  258. Codec ID : S_TEXT/UTF8
  259. Codec ID/Info : UTF-8 Plain Text
  260. Duration : 28 min 16 s
  261. Bit rate : 74 b/s
  262. Count of elements : 536
  263. Stream size : 15.4 KiB (0%)
  264. Language : Chinese
  265. Default : No
  266. Forced : No

  267. Menu
  268. 00:01:35.920 : en:Intro
  269. 00:01:58.450 : en:Main
  270. 00:28:06.720 : en:Credits
复制代码

低俗僵尸玩出征(港) / 吸血鬼家庭尸篇(台)/吸血鬼生活 第一季4k.What.We.Do.in.the.Shadows.S01.2160p.DSNP.WEB-DL.x265.10bit.HDR.DDP5.1-4k美剧下载

吸血鬼生活 第一季4k.What.We.Do.in.the.Shadows.S01.2160p.DSNP.WEB-DL.x265.10bit.HDR.DDP5.1自带简繁中字【26.30 GB】
[Hao4k]吸血鬼生活 第一季4k.What.We.Do.in.the.Shadows.S01.2160p.DSNP.WEB-DL.x265.10bit.HDR.DDP5.1-SiGLA.torrent (34.62 KB)
回复

使用道具 举报

   发表回复

您需要登录后才可以回帖 登录 | 立即注册

返回列表 本版积分规则

  • 发布新帖

  • 客服/帮助

  • 手机APP

  • 返回顶部