微博 微信 手机APP

Hao4K影音

电影频道
电影封面:
片  名: 毒液2
电影分类: 动作 科幻 惊悚 
国  家: 美国 
年  代: 2021年
分 辨 率: 4K(3840x2160)
电影格式: MKV|REMUX 
画质标准: HDR10 
音质编码: Dolby Digital Plus Audio 
电影声道: 5.1声道 
帧数/FPS: 23.976 帧
电影语言: 英文原版 
资源大小: 10.48 GB
导  演: 安迪·瑟金斯
豆瓣评分: 5.1 分
中文字幕: -
剧情简介: 电影讲述了外星共生体“毒液”与宿主埃迪(汤姆·哈迪 饰)这对“最佳拍档”遇上致命反派共生体“卡内奇”(伍迪·哈里森 饰),超级英雄和邪恶反派的宿命之战即将开始。
毒魔:血战大屠杀(港) / 猛毒2:血蜘蛛(台) / 毒液2:屠杀开始 / 毒液:屠杀开始 / 毒液:放纵屠杀 / 毒液2:屠杀将至 / Venom 2/毒液2 4K.Venom.Let.There.Be.Carnage.2021.2160p.WEB-DL.x265.10bit.HDR10Plus.DDP5.1-4k电影信息
  1. Video
  2. ID : 1
  3. Format : HEVC
  4. Format/Info : High Efficiency Video Coding
  5. Format profile : Main 10@L5@Main
  6. HDR format : SMPTE ST 2094 App 4, Version 1, HDR10+ Profile B compatible
  7. Codec ID : V_MPEGH/ISO/HEVC
  8. Duration : 1 h 37 min
  9. Bit rate : 14.8 Mb/s
  10. Width : 3 840 pixels
  11. Height : 2 080 pixels
  12. Display aspect ratio : 1.85:1
  13. Frame rate mode : Constant
  14. Frame rate : 23.976 (24000/1001) FPS
  15. Color space : YUV
  16. Chroma subsampling : 4:2:0
  17. Bit depth : 10 bits
  18. Bits/(Pixel*Frame) : 0.077
  19. Stream size : 10.0 GiB (96%)
  20. Default : Yes
  21. Forced : No
  22. Color range : Limited
  23. Color primaries : BT.2020
  24. Transfer characteristics : PQ
  25. Matrix coefficients : BT.2020 non-constant
  26. Mastering display color primaries : BT.2020
  27. Mastering display luminance : min: 0.0001 cd/m2, max: 1000 cd/m2
  28. Maximum Content Light Level : 5681 cd/m2
  29. Maximum Frame-Average Light Level : 522 cd/m2

  30. Audio
  31. ID : 2
  32. Format : E-AC-3
  33. Format/Info : Enhanced AC-3
  34. Commercial name : Dolby Digital Plus
  35. Codec ID : A_EAC3
  36. Duration : 1 h 37 min
  37. Bit rate mode : Constant
  38. Bit rate : 640 kb/s
  39. Channel(s) : 6 channels
  40. Channel layout : L R C LFE Ls Rs
  41. Sampling rate : 48.0 kHz
  42. Frame rate : 31.250 FPS (1536 SPF)
  43. Compression mode : Lossy
  44. Stream size : 445 MiB (4%)
  45. Title : English
  46. Language : English
  47. Service kind : Complete Main
  48. Default : No
  49. Forced : No

  50. Text #1
  51. ID : 3
  52. Format : UTF-8
  53. Codec ID : S_TEXT/UTF8
  54. Codec ID/Info : UTF-8 Plain Text
  55. Duration : 1 h 36 min
  56. Bit rate : 56 b/s
  57. Count of elements : 1658
  58. Stream size : 40.0 KiB (0%)
  59. Title : English
  60. Language : English
  61. Default : No
  62. Forced : No

  63. Text #2
  64. ID : 4
  65. Format : UTF-8
  66. Codec ID : S_TEXT/UTF8
  67. Codec ID/Info : UTF-8 Plain Text
  68. Duration : 1 h 36 min
  69. Bit rate : 71 b/s
  70. Count of elements : 1863
  71. Stream size : 50.5 KiB (0%)
  72. Title : English [SDH]
  73. Language : English
  74. Default : No
  75. Forced : No
复制代码

毒魔:血战大屠杀(港) / 猛毒2:血蜘蛛(台) / 毒液2:屠杀开始 / 毒液:屠杀开始 / 毒液:放纵屠杀 / 毒液2:屠杀将至 / Venom 2/毒液2 4K.Venom.Let.There.Be.Carnage.2021.2160p.WEB-DL.x265.10bit.HDR10Plus.DDP5.1-4K电影下载

毒液2 4K.Venom.Let.There.Be.Carnage.2021.2160p.WEB-DL.x265.10bit.HDR10Plus.DDP5.1 【4K HDR 10.48 GB】
[Hao4K]毒液2.4K.Venom.Let.There.Be.Carnage.2021.2160p.WEB-DL.x265.10bit.HDR10Plus.DDP5.1-CM.torrent (13.77 KB, 售价: 3 个K币)
回复

使用道具 举报

全部回复1

总是系鞋带 2

21-11-23 15:25

漂亮,晚上可以看了
回复 支持 19 反对 6

使用道具 举报

   发表回复

您需要登录后才可以回帖 登录 | 立即注册

返回列表 本版积分规则

  • 发布新帖

  • 客服/帮助

  • 手机APP

  • 返回顶部